  0
SECTION
  2
HEADER
  9
$ACADVER
  1
AC1015
  9
$ACADMAINTVER
 70
     6
  9
$DWGCODEPAGE
  3
ANSI_932
  9
$INSBASE
 10
0.0
 20
0.0
 30
0.0
  9
$EXTMIN
 10
-125.7581852451014
 20
87.7693670977676
 30
-0.00000001
  9
$EXTMAX
 10
-47.40257792141647
 20
247.188862373763
 30
0.00000001
  9
$LIMMIN
 10
11.72986111111111
 20
9.446796332465277
  9
$LIMMAX
 10
202.9667670355902
 20
282.012415907118
  9
$ORTHOMODE
 70
     0
  9
$REGENMODE
 70
     1
  9
$FILLMODE
 70
     1
  9
$QTEXTMODE
 70
     0
  9
$MIRRTEXT
 70
     1
  9
$LTSCALE
 40
1.0
  9
$ATTMODE
 70
     1
  9
$TEXTSIZE
 40
0.0
  9
$TRACEWID
 40
0.05
  9
$TEXTSTYLE
  7
Standard
  9
$CLAYER
  8
0
  9
$CELTYPE
  6
ByLayer
  9
$CECOLOR
 62
   256
  9
$CELTSCALE
 40
1.0
  9
$DISPSILH
 70
     0
  9
$DIMSCALE
 40
1.0
  9
$DIMASZ
 40
2.0
  9
$DIMEXO
 40
2.0
  9
$DIMDLI
 40
3.75
  9
$DIMRND
 40
0.0
  9
$DIMDLE
 40
0.0
  9
$DIMEXE
 40
0.5
  9
$DIMTP
 40
0.0
  9
$DIMTM
 40
0.0
  9
$DIMTXT
 40
2.5
  9
$DIMCEN
 40
2.0
  9
$DIMTSZ
 40
0.0
  9
$DIMTOL
 70
     0
  9
$DIMLIM
 70
     0
  9
$DIMTIH
 70
     0
  9
$DIMTOH
 70
     0
  9
$DIMSE1
 70
     0
  9
$DIMSE2
 70
     0
  9
$DIMTAD
 70
     1
  9
$DIMZIN
 70
     8
  9
$DIMBLK
  1

  9
$DIMASO
 70
     1
  9
$DIMSHO
 70
     1
  9
$DIMPOST
  1

  9
$DIMAPOST
  1

  9
$DIMALT
 70
     0
  9
$DIMALTD
 70
     3
  9
$DIMALTF
 40
0.03937007874016
  9
$DIMLFAC
 40
1.0
  9
$DIMTOFL
 70
     1
  9
$DIMTVP
 40
0.0
  9
$DIMTIX
 70
     1
  9
$DIMSOXD
 70
     1
  9
$DIMSAH
 70
     0
  9
$DIMBLK1
  1

  9
$DIMBLK2
  1

  9
$DIMSTYLE
  2
ISO-25 1／10
  9
$DIMCLRD
 70
     0
  9
$DIMCLRE
 70
     0
  9
$DIMCLRT
 70
     0
  9
$DIMTFAC
 40
1.0
  9
$DIMGAP
 40
0.75
  9
$DIMJUST
 70
     0
  9
$DIMSD1
 70
     0
  9
$DIMSD2
 70
     0
  9
$DIMTOLJ
 70
     0
  9
$DIMTZIN
 70
     8
  9
$DIMALTZ
 70
     0
  9
$DIMALTTZ
 70
     0
  9
$DIMUPT
 70
     0
  9
$DIMDEC
 70
     1
  9
$DIMTDEC
 70
     1
  9
$DIMALTU
 70
     2
  9
$DIMALTTD
 70
     3
  9
$DIMTXSTY
  7
Standard
  9
$DIMAUNIT
 70
     0
  9
$DIMADEC
 70
     0
  9
$DIMALTRND
 40
0.0
  9
$DIMAZIN
 70
     0
  9
$DIMDSEP
 70
    46
  9
$DIMATFIT
 70
     3
  9
$DIMFRAC
 70
     0
  9
$DIMLDRBLK
  1

  9
$DIMLUNIT
 70
     2
  9
$DIMLWD
 70
    -2
  9
$DIMLWE
 70
    -2
  9
$DIMTMOVE
 70
     0
  9
$LUNITS
 70
     2
  9
$LUPREC
 70
     4
  9
$SKETCHINC
 40
0.1
  9
$FILLETRAD
 40
0.0
  9
$AUNITS
 70
     0
  9
$AUPREC
 70
     0
  9
$MENU
  1
acad
  9
$ELEVATION
 40
0.0
  9
$PELEVATION
 40
0.0
  9
$THICKNESS
 40
0.0
  9
$LIMCHECK
 70
     0
  9
$CHAMFERA
 40
1.0
  9
$CHAMFERB
 40
1.0
  9
$CHAMFERC
 40
0.0
  9
$CHAMFERD
 40
0.0
  9
$SKPOLY
 70
     0
  9
$TDCREATE
 40
2460395.459679224
  9
$TDUCREATE
 40
2460395.084679224
  9
$TDUPDATE
 40
2460398.388438229
  9
$TDUUPDATE
 40
2460398.013438229
  9
$TDINDWG
 40
0.0234718171
  9
$TDUSRTIMER
 40
0.0234718171
  9
$USRTIMER
 70
     1
  9
$ANGBASE
 50
0.0
  9
$ANGDIR
 70
     0
  9
$PDMODE
 70
     0
  9
$PDSIZE
 40
0.0
  9
$PLINEWID
 40
0.0
  9
$SPLFRAME
 70
     0
  9
$SPLINETYPE
 70
     6
  9
$SPLINESEGS
 70
     8
  9
$HANDSEED
  5
103E
  9
$SURFTAB1
 70
     6
  9
$SURFTAB2
 70
     6
  9
$SURFTYPE
 70
     6
  9
$SURFU
 70
     6
  9
$SURFV
 70
     6
  9
$UCSBASE
  2

  9
$UCSNAME
  2

  9
$UCSORG
 10
0.0
 20
0.0
 30
0.0
  9
$UCSXDIR
 10
1.0
 20
0.0
 30
0.0
  9
$UCSYDIR
 10
0.0
 20
1.0
 30
0.0
  9
$UCSORTHOREF
  2

  9
$UCSORTHOVIEW
 70
     0
  9
$UCSORGTOP
 10
0.0
 20
0.0
 30
0.0
  9
$UCSORGBOTTOM
 10
0.0
 20
0.0
 30
0.0
  9
$UCSORGLEFT
 10
0.0
 20
0.0
 30
0.0
  9
$UCSORGRIGHT
 10
0.0
 20
0.0
 30
0.0
  9
$UCSORGFRONT
 10
0.0
 20
0.0
 30
0.0
  9
$UCSORGBACK
 10
0.0
 20
0.0
 30
0.0
  9
$PUCSBASE
  2

  9
$PUCSNAME
  2

  9
$PUCSORG
 10
0.0
 20
0.0
 30
0.0
  9
$PUCSXDIR
 10
1.0
 20
0.0
 30
0.0
  9
$PUCSYDIR
 10
0.0
 20
1.0
 30
0.0
  9
$PUCSORTHOREF
  2

  9
$PUCSORTHOVIEW
 70
     0
  9
$PUCSORGTOP
 10
0.0
 20
0.0
 30
0.0
  9
$PUCSORGBOTTOM
 10
0.0
 20
0.0
 30
0.0
  9
$PUCSORGLEFT
 10
0.0
 20
0.0
 30
0.0
  9
$PUCSORGRIGHT
 10
0.0
 20
0.0
 30
0.0
  9
$PUCSORGFRONT
 10
0.0
 20
0.0
 30
0.0
  9
$PUCSORGBACK
 10
0.0
 20
0.0
 30
0.0
  9
$USERI1
 70
     0
  9
$USERI2
 70
     0
  9
$USERI3
 70
     0
  9
$USERI4
 70
     0
  9
$USERI5
 70
     0
  9
$USERR1
 40
0.0
  9
$USERR2
 40
0.0
  9
$USERR3
 40
0.0
  9
$USERR4
 40
0.0
  9
$USERR5
 40
0.0
  9
$WORLDVIEW
 70
     1
  9
$SHADEDGE
 70
     3
  9
$SHADEDIF
 70
    70
  9
$TILEMODE
 70
     1
  9
$MAXACTVP
 70
    16
  9
$PINSBASE
 10
0.0
 20
0.0
 30
0.0
  9
$PLIMCHECK
 70
     0
  9
$PEXTMIN
 10
1.000000000000000E+20
 20
1.000000000000000E+20
 30
1.000000000000000E+20
  9
$PEXTMAX
 10
-1.000000000000000E+20
 20
-1.000000000000000E+20
 30
-1.000000000000000E+20
  9
$PLIMMIN
 10
0.0
 20
0.0
  9
$PLIMMAX
 10
12.0
 20
9.0
  9
$UNITMODE
 70
     0
  9
$VISRETAIN
 70
     0
  9
$PLINEGEN
 70
     1
  9
$PSLTSCALE
 70
     0
  9
$TREEDEPTH
 70
  3020
  9
$CMLSTYLE
  2
Standard
  9
$CMLJUST
 70
     0
  9
$CMLSCALE
 40
1.0
  9
$PROXYGRAPHICS
 70
     0
  9
$MEASUREMENT
 70
     1
  9
$CELWEIGHT
370
    13
  9
$ENDCAPS
280
     0
  9
$JOINSTYLE
280
     0
  9
$LWDISPLAY
290
     0
  9
$INSUNITS
 70
     0
  9
$HYPERLINKBASE
  1

  9
$STYLESHEET
  1

  9
$XEDIT
290
     1
  9
$CEPSNTYPE
380
     0
  9
$PSTYLEMODE
290
     1
  9
$FINGERPRINTGUID
  2

  9
$VERSIONGUID
  2
{19C5C0A3-739E-4C9E-A167-24C55C7D2AC3}
  9
$EXTNAMES
290
     1
  9
$PSVPSCALE
 40
0.0
  9
$OLESTARTUP
290
     0
  0
ENDSEC
  0
SECTION
  2
CLASSES
  0
CLASS
  1
LWPOLYLINE
  2
AcDbPolyline
  3
AutoCAD 2000
 90
    32768
280
     0
281
     1
  0
CLASS
  1
IMAGE
  2
AcDbRasterImage
  3
ISM
 90
    32895
280
     0
281
     1
  0
CLASS
  1
OLE2FRAME
  2
AcDbOle2Frame
  3
AutoCAD 2000
 90
    32768
280
     0
281
     1
  0
CLASS
  1
HATCH
  2
AcDbHatch
  3
AutoCAD 2000
 90
    32768
280
     0
281
     1
  0
CLASS
  1
DICTIONARYVAR
  2
AcDbDictionaryVar
  3
AutoCAD 2000
 90
    32768
280
     0
281
     0
  0
CLASS
  1
RASTERVARIABLES
  2
AcDbRasterVariables
  3
ISM
 90
        0
280
     0
281
     0
  0
CLASS
  1
IMAGEDEF
  2
AcDbRasterImageDef
  3
ISM
 90
    32768
280
     0
281
     0
  0
CLASS
  1
IMAGEDEF_REACTOR
  2
AcDbRasterImageDefReactor
  3
ISM
 90
    32769
280
     0
281
     0
  0
CLASS
  1
IDBUFFER
  2
AcDbIdBuffer
  3
AutoCAD 2000
 90
    32768
280
     0
281
     0
  0
CLASS
  1
SPATIAL_FILTER
  2
AcDbSpatialFilter
  3
AutoCAD 2000
 90
    32768
280
     0
281
     0
  0
CLASS
  1
XRECORD
  2
AcDbXrecord
  3
AutoCAD 2000
 90
    32768
280
     0
281
     0
  0
CLASS
  1
SORTENTSTABLE
  2
AcDbSortentsTable
  3
AutoCAD 2000
 90
    32768
280
     0
281
     0
  0
CLASS
  1
LAYER_INDEX
  2
AcDbLayerIndex
  3
AutoCAD 2000
 90
    32768
280
     0
281
     0
  0
CLASS
  1
SPATIAL_INDEX
  2
AcDbSpatialIndex
  3
AutoCAD 2000
 90
    32768
280
     0
281
     0
  0
CLASS
  1
OBJECT_PTR
  2
CAseDLPNTableRecord
  3
"ASE-LPNTableRecord"
 90
    32769
280
     0
281
     0
  0
CLASS
  1
LAYOUT
  2
AcDbLayout
  3
AutoCAD 2000
 90
        0
280
     0
281
     0
  0
CLASS
  1
PLOTSETTINGS
  2
AcDbPlotSettings
  3
AutoCAD 2000
 90
    32768
280
     0
281
     0
  0
CLASS
  1
ACDBDICTIONARYWDFLT
  2
AcDbDictionaryWithDefault
  3
AutoCAD 2000
 90
        0
280
     0
281
     0
  0
CLASS
  1
ACDBPLACEHOLDER
  2
AcDbPlaceHolder
  3
AutoCAD 2000
 90
        0
280
     0
281
     0
  0
CLASS
  1
VBA_PROJECT
  2
AcDbVbaProject
  3
acadvba
 90
    32768
280
     0
281
     0
  0
CLASS
  1
WIPEOUT
  2
AcDbWipeout
  3
WipeOut|AutoCAD Express Tool|expresstools@autodesk.com
 90
    32895
280
     0
281
     1
  0
CLASS
  1
WIPEOUTVARIABLES
  2
AcDbWipeoutVariables
  3
WipeOut|AutoCAD Express Tool|expresstools@autodesk.com
 90
        0
280
     0
281
     0
  0
CLASS
  1
RTEXT
  2
RText
  3
RText|AutoCAD Express Tool|expresstools@autodesk.com
 90
    32768
280
     0
281
     1
  0
CLASS
  1
ARCALIGNEDTEXT
  2
AcDbArcAlignedText
  3
ATEXT|AutoCAD Express Tool|expresstools@autodesk.com
 90
    32768
280
     0
281
     1
  0
CLASS
  1
ACAD_PROXY_OBJECT_WRAPPER
  2
AcDbProxyObjectWrapper
  3
AutoCAD 2000
 90
    32768
280
     0
281
     0
  0
ENDSEC
  0
SECTION
  2
TABLES
  0
TABLE
  2
VPORT
  5
7
330
0
100
AcDbSymbolTable
 70
     2
  0
VPORT
  5
103D
330
7
100
AcDbSymbolTableRecord
100
AcDbViewportTableRecord
  2
*Active
 70
     0
 10
0.0
 20
0.0
 11
1.0
 21
1.0
 12
-63.10626491437535
 22
153.8612032902168
 13
0.0
 23
0.0
 14
1.0
 24
1.0
 15
0.0
 25
0.0
 16
0.0
 26
0.0
 36
1.0
 17
0.0
 27
0.0
 37
0.0
 40
232.7020295965179
 41
2.165492957746478
 42
50.0
 43
0.0
 44
0.0
 50
0.0
 51
0.0
 71
     0
 72
   100
 73
     1
 74
     1
 75
     0
 76
     0
 77
     0
 78
     0
281
     0
 65
     0
110
0.0
120
0.0
130
0.0
111
1.0
121
0.0
131
0.0
112
0.0
122
1.0
132
0.0
 79
     0
146
0.0
  0
ENDTAB
  0
TABLE
  2
LTYPE
  5
4
330
0
100
AcDbSymbolTable
 70
     1
  0
LTYPE
  5
11
330
4
100
AcDbSymbolTableRecord
100
AcDbLinetypeTableRecord
  2
ByBlock
 70
     0
  3

 72
    65
 73
     0
 40
0.0
  0
LTYPE
  5
12
330
4
100
AcDbSymbolTableRecord
100
AcDbLinetypeTableRecord
  2
ByLayer
 70
     0
  3

 72
    65
 73
     0
 40
0.0
  0
LTYPE
  5
13
330
4
100
AcDbSymbolTableRecord
100
AcDbLinetypeTableRecord
  2
Continuous
 70
     0
  3
Solid line
 72
    65
 73
     0
 40
0.0
  0
ENDTAB
  0
TABLE
  2
LAYER
  5
2
102
{ACAD_XDICTIONARY
360
B3A
102
}
330
0
100
AcDbSymbolTable
 70
     4
  0
LAYER
  5
14
330
2
100
AcDbSymbolTableRecord
100
AcDbLayerTableRecord
  2
0
 70
     0
 62
     7
  6
Continuous
370
    -3
390
1D
  0
LAYER
  5
D96
330
2
100
AcDbSymbolTableRecord
100
AcDbLayerTableRecord
  2
Defpoints
 70
     0
 62
     2
  6
Continuous
290
     0
370
    -3
390
1D
  0
LAYER
  5
D97
330
2
100
AcDbSymbolTableRecord
100
AcDbLayerTableRecord
  2
寸法
 70
     0
 62
     6
  6
Continuous
370
    -3
390
1D
  0
LAYER
  5
1030
330
2
100
AcDbSymbolTableRecord
100
AcDbLayerTableRecord
  2
文字
 70
     0
 62
    30
  6
Continuous
370
    -3
390
1D
  0
ENDTAB
  0
TABLE
  2
STYLE
  5
3
330
0
100
AcDbSymbolTable
 70
     1
  0
STYLE
  5
17
330
3
100
AcDbSymbolTableRecord
100
AcDbTextStyleTableRecord
  2
Standard
 70
     0
 40
0.0
 41
1.0
 50
0.0
 71
     0
 42
0.0
  3
txt
  4

  0
ENDTAB
  0
TABLE
  2
VIEW
  5
5
330
0
100
AcDbSymbolTable
 70
     0
  0
ENDTAB
  0
TABLE
  2
UCS
  5
6
330
0
100
AcDbSymbolTable
 70
     0
  0
ENDTAB
  0
TABLE
  2
APPID
  5
8
330
0
100
AcDbSymbolTable
 70
     1
  0
APPID
  5
16
330
8
100
AcDbSymbolTableRecord
100
AcDbRegAppTableRecord
  2
ACAD
 70
     0
  0
ENDTAB
  0
TABLE
  2
DIMSTYLE
  5
9
330
0
100
AcDbSymbolTable
 70
     2
100
AcDbDimStyleTable
 71
     1
340
D98
  0
DIMSTYLE
105
18
330
9
100
AcDbSymbolTableRecord
100
AcDbDimStyleTableRecord
  2
Standard
 70
     0
289
     0
340
17
  0
DIMSTYLE
105
D98
102
{ACAD_REACTORS
330
DA0
330
DA1
330
DA2
330
FB7
330
FDF
102
}
330
9
100
AcDbSymbolTableRecord
100
AcDbDimStyleTableRecord
  2
ISO-25 1／10
 70
     0
 41
2.0
 42
2.0
 43
3.75
 44
0.5
 73
     0
 74
     0
 77
     1
 78
     8
140
2.5
141
2.0
143
0.03937007874016
147
0.75
171
     3
172
     1
174
     1
175
     1
271
     1
272
     1
274
     3
283
     0
284
     8
340
17
  0
ENDTAB
  0
TABLE
  2
BLOCK_RECORD
  5
1
330
0
100
AcDbSymbolTable
 70
     5
  0
BLOCK_RECORD
  5
A
330
1
100
AcDbSymbolTableRecord
100
AcDbBlockTableRecord
  2
*MODEL_SPACE
340
20
  0
BLOCK_RECORD
  5
B
330
1
100
AcDbSymbolTableRecord
100
AcDbBlockTableRecord
  2
*PAPER_SPACE
340
21
  0
BLOCK_RECORD
  5
DA3
330
1
100
AcDbSymbolTableRecord
100
AcDbBlockTableRecord
  2
*D0
340
0
  0
BLOCK_RECORD
  5
DAF
330
1
100
AcDbSymbolTableRecord
100
AcDbBlockTableRecord
  2
*D1
340
0
  0
BLOCK_RECORD
  5
DBB
330
1
100
AcDbSymbolTableRecord
100
AcDbBlockTableRecord
  2
*D2
340
0
  0
BLOCK_RECORD
  5
FB8
330
1
100
AcDbSymbolTableRecord
100
AcDbBlockTableRecord
  2
*D3
340
0
  0
BLOCK_RECORD
  5
FE0
330
1
100
AcDbSymbolTableRecord
100
AcDbBlockTableRecord
  2
*D4
340
0
  0
ENDTAB
  0
ENDSEC
  0
SECTION
  2
BLOCKS
  0
BLOCK
  5
D
330
A
100
AcDbEntity
  8
0
100
AcDbBlockBegin
  2
*MODEL_SPACE
 70
     0
 10
0.0
 20
0.0
 30
0.0
  3
*MODEL_SPACE
  1

  0
ENDBLK
  5
E
330
A
100
AcDbEntity
  8
0
100
AcDbBlockEnd
  0
BLOCK
  5
F
330
B
100
AcDbEntity
 67
     1
  8
0
100
AcDbBlockBegin
  2
*PAPER_SPACE
 70
     0
 10
0.0
 20
0.0
 30
0.0
  3
*PAPER_SPACE
  1

  0
ENDBLK
  5
10
330
B
100
AcDbEntity
 67
     1
  8
0
100
AcDbBlockEnd
  0
BLOCK
  5
DAD
330
DA3
100
AcDbEntity
  8
0
370
     0
100
AcDbBlockBegin
  2
*D0
 70
     1
 10
0.0
 20
0.0
 30
0.0
  3
*D0
  1

  0
LINE
  5
FAE
330
DA3
100
AcDbEntity
  8
寸法
 62
     0
370
    -2
100
AcDbLine
 10
-117.5096596134643
 20
125.8130619716106
 30
0.0
 11
-117.5096596134643
 21
111.8138623320213
 31
0.0
  0
LINE
  5
FAF
330
DA3
100
AcDbEntity
  8
寸法
 62
     0
370
    -2
100
AcDbLine
 10
-47.5096280840895
 20
125.8149411210168
 30
0.0
 11
-47.5096280840895
 21
111.8138623320213
 31
0.0
  0
LINE
  5
FB0
330
DA3
100
AcDbEntity
  8
寸法
 62
     0
370
    -2
100
AcDbLine
 10
-115.5096596134643
 20
112.3138623320214
 30
0.0
 11
-49.5096280840895
 21
112.3138623320214
 31
0.0
  0
SOLID
  5
FB1
330
DA3
100
AcDbEntity
  8
寸法
 62
     0
370
    13
100
AcDbTrace
 10
-115.5096596134643
 20
112.6471956653547
 30
0.0
 11
-115.5096596134643
 21
111.980528998688
 31
0.0
 12
-117.5096596134643
 22
112.3138623320214
 32
0.0
 13
-117.5096596134643
 23
112.3138623320214
 33
0.0
  0
SOLID
  5
FB2
330
DA3
100
AcDbEntity
  8
寸法
 62
     0
370
    13
100
AcDbTrace
 10
-49.5096280840895
 20
112.6471956653547
 30
0.0
 11
-49.5096280840895
 21
111.980528998688
 31
0.0
 12
-47.5096280840895
 22
112.3138623320214
 32
0.0
 13
-47.5096280840895
 23
112.3138623320214
 33
0.0
  0
MTEXT
  5
FB3
330
DA3
100
AcDbEntity
  8
寸法
 62
     0
370
    13
100
AcDbMText
 10
-82.50964384877692
 20
114.3138623320214
 30
0.0
 40
2.5
 41
0.0
 71
     5
 72
     1
  1
70
 73
     1
 44
1.0
  0
POINT
  5
FB4
330
DA3
100
AcDbEntity
  8
Defpoints
 62
     0
370
    13
100
AcDbPoint
 10
-117.5096596134643
 20
127.8130619716106
 30
0.0
  0
POINT
  5
FB5
330
DA3
100
AcDbEntity
  8
Defpoints
 62
     0
370
    13
100
AcDbPoint
 10
-47.5096280840895
 20
127.8149411210168
 30
0.0
  0
POINT
  5
FB6
330
DA3
100
AcDbEntity
  8
Defpoints
 62
     0
370
    13
100
AcDbPoint
 10
-47.5096280840895
 20
112.3138623320214
 30
0.0
  0
ENDBLK
  5
DAE
330
DA3
100
AcDbEntity
  8
0
370
     0
100
AcDbBlockEnd
  0
BLOCK
  5
DB9
330
DAF
100
AcDbEntity
  8
0
370
     0
100
AcDbBlockBegin
  2
*D1
 70
     1
 10
0.0
 20
0.0
 30
0.0
  3
*D1
  1

  0
LINE
  5
F85
330
DAF
100
AcDbEntity
  8
寸法
 62
     0
370
    -2
100
AcDbLine
 10
-74.22320127256255
 20
240.0792838269053
 30
0.0
 11
-74.22320127256255
 21
243.813862373763
 31
0.0
  0
LINE
  5
F86
330
DAF
100
AcDbEntity
  8
寸法
 62
     0
370
    -2
100
AcDbLine
 10
-90.72320127256254
 20
240.3138623023344
 30
0.0
 11
-90.72320127256254
 21
243.813862373763
 31
0.0
  0
LINE
  5
F87
330
DAF
100
AcDbEntity
  8
寸法
 62
     0
370
    -2
100
AcDbLine
 10
-76.22320127256255
 20
243.313862373763
 30
0.0
 11
-88.72320127256255
 21
243.313862373763
 31
0.0
  0
SOLID
  5
F88
330
DAF
100
AcDbEntity
  8
寸法
 62
     0
370
    13
100
AcDbTrace
 10
-76.22320127256255
 20
243.6471957070963
 30
0.0
 11
-76.22320127256255
 21
242.9805290404296
 31
0.0
 12
-74.22320127256255
 22
243.313862373763
 32
0.0
 13
-74.22320127256255
 23
243.313862373763
 33
0.0
  0
SOLID
  5
F89
330
DAF
100
AcDbEntity
  8
寸法
 62
     0
370
    13
100
AcDbTrace
 10
-88.72320127256255
 20
243.6471957070963
 30
0.0
 11
-88.72320127256255
 21
242.9805290404296
 31
0.0
 12
-90.72320127256254
 22
243.313862373763
 32
0.0
 13
-90.72320127256254
 23
243.313862373763
 33
0.0
  0
MTEXT
  5
F8A
330
DAF
100
AcDbEntity
  8
寸法
 62
     0
370
    13
100
AcDbMText
 10
-82.47320127256255
 20
245.313862373763
 30
0.0
 40
2.5
 41
0.0
 71
     5
 72
     1
  1
{\fMS UI Gothic|b0|i0|c128|p17;\U+2260}16.5
 73
     1
 44
1.0
  0
POINT
  5
F8B
330
DAF
100
AcDbEntity
  8
Defpoints
 62
     0
370
    13
100
AcDbPoint
 10
-74.22320127256255
 20
238.0792838269053
 30
0.0
  0
POINT
  5
F8C
330
DAF
100
AcDbEntity
  8
Defpoints
 62
     0
370
    13
100
AcDbPoint
 10
-90.72320127256254
 20
238.3138623023344
 30
0.0
  0
POINT
  5
F8D
330
DAF
100
AcDbEntity
  8
Defpoints
 62
     0
370
    13
100
AcDbPoint
 10
-90.72320127256254
 20
243.313862373763
 30
0.0
  0
ENDBLK
  5
DBA
330
DAF
100
AcDbEntity
  8
0
370
     0
100
AcDbBlockEnd
  0
BLOCK
  5
DC5
330
DBB
100
AcDbEntity
  8
0
370
     0
100
AcDbBlockBegin
  2
*D2
 70
     1
 10
0.0
 20
0.0
 30
0.0
  3
*D2
  1

  0
LINE
  5
F57
330
DBB
100
AcDbEntity
  8
寸法
 62
     0
370
    -2
100
AcDbLine
 10
-109.5180978784663
 20
192.3138623811324
 30
0.0
 11
-123.0081852451013
 21
192.3138623811324
 31
0.0
  0
LINE
  5
F58
330
DBB
100
AcDbEntity
  8
寸法
 62
     0
370
    -2
100
AcDbLine
 10
-119.0091120043092
 20
127.3138623320213
 30
0.0
 11
-123.0081852451014
 21
127.3138623320213
 31
0.0
  0
LINE
  5
F59
330
DBB
100
AcDbEntity
  8
寸法
 62
     0
370
    -2
100
AcDbLine
 10
-122.5081852451014
 20
190.3138623811324
 30
0.0
 11
-122.5081852451014
 21
129.3138623320213
 31
0.0
  0
SOLID
  5
F5A
330
DBB
100
AcDbEntity
  8
寸法
 62
     0
370
    13
100
AcDbTrace
 10
-122.8415185784347
 20
190.3138623811324
 30
0.0
 11
-122.174851911768
 21
190.3138623811324
 31
0.0
 12
-122.5081852451014
 22
192.3138623811324
 32
0.0
 13
-122.5081852451014
 23
192.3138623811324
 33
0.0
  0
SOLID
  5
F5B
330
DBB
100
AcDbEntity
  8
寸法
 62
     0
370
    13
100
AcDbTrace
 10
-122.8415185784347
 20
129.3138623320213
 30
0.0
 11
-122.174851911768
 21
129.3138623320213
 31
0.0
 12
-122.5081852451014
 22
127.3138623320213
 32
0.0
 13
-122.5081852451014
 23
127.3138623320213
 33
0.0
  0
MTEXT
  5
F5C
330
DBB
100
AcDbEntity
  8
寸法
 62
     0
370
    13
100
AcDbMText
 10
-124.5081852451014
 20
159.8138623565769
 30
0.0
 40
2.5
 41
0.0
 71
     5
 72
     1
  1
65
 11
0.0000000000000001
 21
1.0
 31
0.0
 73
     1
 44
1.0
  0
POINT
  5
F5D
330
DBB
100
AcDbEntity
  8
Defpoints
 62
     0
370
    13
100
AcDbPoint
 10
-107.5180978784663
 20
192.3138623811324
 30
0.0
  0
POINT
  5
F5E
330
DBB
100
AcDbEntity
  8
Defpoints
 62
     0
370
    13
100
AcDbPoint
 10
-117.0091120043092
 20
127.3138623320213
 30
0.0
  0
POINT
  5
F5F
330
DBB
100
AcDbEntity
  8
Defpoints
 62
     0
370
    13
100
AcDbPoint
 10
-122.5081852451014
 20
127.3138623320213
 30
0.0
  0
ENDBLK
  5
DC6
330
DBB
100
AcDbEntity
  8
0
370
     0
100
AcDbBlockEnd
  0
BLOCK
  5
FC2
330
FB8
100
AcDbEntity
  8
0
370
    13
100
AcDbBlockBegin
  2
*D3
 70
     1
 10
0.0
 20
0.0
 30
0.0
  3
*D3
  1

  0
LINE
  5
1022
330
FB8
100
AcDbEntity
  8
寸法
 62
     0
370
    -2
100
AcDbLine
 10
-87.00964384877208
 20
126.3147680298627
 30
0.0
 11
-87.00964384877208
 21
121.8138623320214
 31
0.0
  0
LINE
  5
1023
330
FB8
100
AcDbEntity
  8
寸法
 62
     0
370
    -2
100
AcDbLine
 10
-78.00964384877208
 20
126.3147680298627
 30
0.0
 11
-78.00964384877208
 21
121.8138623320214
 31
0.0
  0
LINE
  5
1024
330
FB8
100
AcDbEntity
  8
寸法
 62
     0
370
    -2
100
AcDbLine
 10
-85.00964384877208
 20
122.3138623320213
 30
0.0
 11
-80.00964384877208
 21
122.3138623320213
 31
0.0
  0
SOLID
  5
1025
330
FB8
100
AcDbEntity
  8
寸法
 62
     0
370
    13
100
AcDbTrace
 10
-85.00964384877208
 20
122.6471956653547
 30
0.0
 11
-85.00964384877208
 21
121.980528998688
 31
0.0
 12
-87.00964384877208
 22
122.3138623320213
 32
0.0
 13
-87.00964384877208
 23
122.3138623320213
 33
0.0
  0
SOLID
  5
1026
330
FB8
100
AcDbEntity
  8
寸法
 62
     0
370
    13
100
AcDbTrace
 10
-80.00964384877208
 20
122.6471956653547
 30
0.0
 11
-80.00964384877208
 21
121.980528998688
 31
0.0
 12
-78.00964384877208
 22
122.3138623320213
 32
0.0
 13
-78.00964384877208
 23
122.3138623320213
 33
0.0
  0
MTEXT
  5
1027
330
FB8
100
AcDbEntity
  8
寸法
 62
     0
370
    13
100
AcDbMText
 10
-82.50964384877208
 20
124.3138623320213
 30
0.0
 40
2.5
 41
0.0
 71
     5
 72
     1
  1
%%c9
 73
     1
 44
1.0
  0
POINT
  5
1028
330
FB8
100
AcDbEntity
  8
Defpoints
 62
     0
370
    13
100
AcDbPoint
 10
-87.00964384877208
 20
128.3147680298627
 30
0.0
  0
POINT
  5
1029
330
FB8
100
AcDbEntity
  8
Defpoints
 62
     0
370
    13
100
AcDbPoint
 10
-78.00964384877208
 20
128.3147680298627
 30
0.0
  0
POINT
  5
102A
330
FB8
100
AcDbEntity
  8
Defpoints
 62
     0
370
    13
100
AcDbPoint
 10
-78.00964384877208
 20
122.3138623320213
 30
0.0
  0
ENDBLK
  5
FC3
330
FB8
100
AcDbEntity
  8
0
370
    13
100
AcDbBlockEnd
  0
BLOCK
  5
FEA
330
FE0
100
AcDbEntity
  8
0
370
    13
100
AcDbBlockBegin
  2
*D4
 70
     1
 10
0.0
 20
0.0
 30
0.0
  3
*D4
  1

  0
LINE
  5
1019
330
FE0
100
AcDbEntity
  8
寸法
 62
     0
370
    -2
100
AcDbLine
 10
-92.50959641575825
 20
137.349014328736
 30
0.0
 11
-92.50959641575825
 21
116.8138623320214
 31
0.0
  0
LINE
  5
101A
330
FE0
100
AcDbEntity
  8
寸法
 62
     0
370
    -2
100
AcDbLine
 10
-72.50959641575825
 20
136.1405168332965
 30
0.0
 11
-72.50959641575825
 21
116.8138623320214
 31
0.0
  0
LINE
  5
101B
330
FE0
100
AcDbEntity
  8
寸法
 62
     0
370
    -2
100
AcDbLine
 10
-90.50959641575825
 20
117.3138623320214
 30
0.0
 11
-74.50959641575825
 21
117.3138623320214
 31
0.0
  0
SOLID
  5
101C
330
FE0
100
AcDbEntity
  8
寸法
 62
     0
370
    13
100
AcDbTrace
 10
-90.50959641575825
 20
117.6471956653547
 30
0.0
 11
-90.50959641575825
 21
116.980528998688
 31
0.0
 12
-92.50959641575825
 22
117.3138623320214
 32
0.0
 13
-92.50959641575825
 23
117.3138623320214
 33
0.0
  0
SOLID
  5
101D
330
FE0
100
AcDbEntity
  8
寸法
 62
     0
370
    13
100
AcDbTrace
 10
-74.50959641575825
 20
117.6471956653547
 30
0.0
 11
-74.50959641575825
 21
116.980528998688
 31
0.0
 12
-72.50959641575825
 22
117.3138623320214
 32
0.0
 13
-72.50959641575825
 23
117.3138623320214
 33
0.0
  0
MTEXT
  5
101E
330
FE0
100
AcDbEntity
  8
寸法
 62
     0
370
    13
100
AcDbMText
 10
-82.50959641575825
 20
119.3138623320214
 30
0.0
 40
2.5
 41
0.0
 71
     5
 72
     1
  1
%%c20
 73
     1
 44
1.0
  0
POINT
  5
101F
330
FE0
100
AcDbEntity
  8
Defpoints
 62
     0
370
    13
100
AcDbPoint
 10
-92.50959641575825
 20
139.349014328736
 30
0.0
  0
POINT
  5
1020
330
FE0
100
AcDbEntity
  8
Defpoints
 62
     0
370
    13
100
AcDbPoint
 10
-72.50959641575825
 20
138.1405168332965
 30
0.0
  0
POINT
  5
1021
330
FE0
100
AcDbEntity
  8
Defpoints
 62
     0
370
    13
100
AcDbPoint
 10
-72.50959641575825
 20
117.3138623320214
 30
0.0
  0
ENDBLK
  5
FEB
330
FE0
100
AcDbEntity
  8
0
370
    13
100
AcDbBlockEnd
  0
ENDSEC
  0
SECTION
  2
ENTITIES
  0
SPLINE
  5
9D2
330
A
100
AcDbEntity
  8
0
370
    13
100
AcDbSpline
210
0.0
220
0.0
230
1.0
 70
     8
 71
     3
 72
     8
 73
     4
 74
     0
 42
0.0000000001
 43
0.0000000001
 40
8.0
 40
8.0
 40
8.0
 40
8.0
 40
9.0
 40
9.0
 40
9.0
 40
9.0
 10
-98.66273819821932
 20
133.9173566431415
 30
0.0
 10
-99.08386357970258
 20
132.1024821489853
 30
0.0
 10
-100.7004194052651
 20
130.8180669805631
 30
0.0
 10
-102.5635801839483
 20
130.8180669805631
 30
0.0
  0
SPLINE
  5
9D3
330
A
100
AcDbEntity
  8
0
370
    13
100
AcDbSpline
210
0.0
220
0.0
230
1.0
 70
     8
 71
     3
 72
     8
 73
     4
 74
     0
 42
0.0000000001
 43
0.0000000001
 40
1.0
 40
1.0
 40
1.0
 40
1.0
 40
2.0
 40
2.0
 40
2.0
 40
2.0
 10
-111.6648550132515
 20
130.8201363927572
 30
0.0
 10
-113.3227990826944
 20
130.8863575829658
 30
0.0
 10
-114.612732683634
 20
132.2832108139298
 30
0.0
 10
-114.5468563954577
 20
133.9401201772757
 30
0.0
  0
SPLINE
  5
9D4
330
A
100
AcDbEntity
  8
0
370
    13
100
AcDbSpline
210
0.0
220
0.0
230
1.0
 70
     8
 71
     3
 72
     8
 73
     4
 74
     0
 42
0.0000000001
 43
0.0000000001
 40
7.0
 40
7.0
 40
7.0
 40
7.0
 40
8.0
 40
8.0
 40
8.0
 40
8.0
 10
-95.66278032095395
 20
134.6237160053672
 30
0.0
 10
-96.10563453047442
 20
133.0247501834539
 30
0.0
 10
-95.1699153167447
 20
131.369910232302
 30
0.0
 10
-93.57060459279898
 20
130.9270560227816
 30
0.0
  0
SPLINE
  5
9D5
330
A
100
AcDbEntity
  8
0
370
    13
100
AcDbSpline
210
0.0
220
0.0
230
1.0
 70
     8
 71
     3
 72
     8
 73
     4
 74
     0
 42
0.0000000001
 43
0.0000000001
 40
1.0
 40
1.0
 40
1.0
 40
1.0
 40
2.0
 40
2.0
 40
2.0
 40
2.0
 10
-73.56007848068326
 20
130.8180669805631
 30
0.0
 10
-72.45397766297917
 20
130.8180669805631
 30
0.0
 10
-71.55826708500052
 20
131.7148122646387
 30
0.0
 10
-71.55826708500052
 20
132.8198783762458
 30
0.0
  0
SPLINE
  5
9D6
330
A
100
AcDbEntity
  8
0
370
    13
100
AcDbSpline
210
0.0
220
0.0
230
1.0
 70
     8
 71
     3
 72
    11
 73
     7
 74
     0
 42
0.0000000001
 43
0.0000000001
 40
9.0
 40
9.0
 40
9.0
 40
9.0
 40
10.0
 40
10.0
 40
10.0
 40
11.0
 40
11.0
 40
11.0
 40
11.0
 10
-52.8314663372423
 20
130.8180669805631
 30
0.0
 10
-51.17352226779938
 20
130.8180669805631
 30
0.0
 10
-49.82771453762122
 20
132.1624951026119
 30
0.0
 10
-49.82771453762122
 20
133.8214738781518
 30
0.0
 10
-49.82771453762122
 20
133.9049401699773
 30
0.0
 10
-49.83150845997691
 20
133.9884064618028
 30
0.0
 10
-49.83909630468834
 20
134.0711829495637
 30
0.0
  0
SPLINE
  5
9D7
330
A
100
AcDbEntity
  8
0
370
    13
100
AcDbSpline
210
0.0
220
0.0
230
1.0
 70
     8
 71
     3
 72
     8
 73
     4
 74
     0
 42
0.0000000001
 43
0.0000000001
 40
7.0
 40
7.0
 40
7.0
 40
7.0
 40
8.0
 40
8.0
 40
8.0
 40
8.0
 10
-68.60556078616531
 20
133.6497126660481
 30
0.0
 10
-68.51450664962837
 20
132.0604041010402
 30
0.0
 10
-67.19939520032823
 20
130.8180669805631
 30
0.0
 10
-65.60732741906161
 20
130.8180669805631
 30
0.0
  0
LINE
  5
9D9
330
A
100
AcDbEntity
  8
0
370
    13
100
AcDbLine
 10
-47.51169739047971
 20
127.8532891105961
 30
0.0
 11
-52.5134666634278
 21
187.7249408408915
 31
0.0
  0
LINE
  5
9DA
330
A
100
AcDbEntity
  8
0
370
    13
100
AcDbLine
 10
-112.506071070121
 20
187.7249408408915
 30
0.0
 11
-117.5081852451014
 21
127.8532891105961
 31
0.0
  0
SPLINE
  5
9DB
330
A
100
AcDbEntity
  8
0
370
    13
100
AcDbSpline
210
0.0
220
0.0
230
1.0
 70
     8
 71
     3
 72
     8
 73
     4
 74
     0
 42
0.0000000001
 43
0.0000000001
 40
1.0
 40
1.0
 40
1.0
 40
1.0
 40
2.0
 40
2.0
 40
2.0
 40
2.0
 10
-117.0477410319317
 20
127.3152419401507
 30
0.0
 10
-117.0349796567353
 20
127.314552136086
 30
0.0
 10
-117.0218733795065
 20
127.3138623320214
 30
0.0
 10
-117.0091120043101
 20
127.3138623320214
 30
0.0
  0
SPLINE
  5
9DC
330
A
100
AcDbEntity
  8
0
370
    13
100
AcDbSpline
210
0.0
220
0.0
230
1.0
 70
     8
 71
     3
 72
     8
 73
     4
 74
     0
 42
0.0000000001
 43
0.0000000001
 40
0.0
 40
0.0
 40
0.0
 40
0.0
 40
1.0
 40
1.0
 40
1.0
 40
1.0
 10
-117.5081852451014
 20
127.8532891105961
 30
0.0
 10
-117.5292242690739
 20
127.5773674847267
 30
0.0
 10
-117.3229728537365
 20
127.3366258661556
 30
0.0
 10
-117.0477410319317
 20
127.3152419401507
 30
0.0
  0
SPLINE
  5
9DD
330
A
100
AcDbEntity
  8
0
370
    13
100
AcDbSpline
210
0.0
220
0.0
230
1.0
 70
    24
 71
     3
 72
     8
 73
     4
 74
     0
 42
0.0000000001
 43
0.0000000001
 40
9.0
 40
9.0
 40
9.0
 40
9.0
 40
10.0
 40
10.0
 40
10.0
 40
10.0
 10
-102.5635801839483
 20
130.8180669805631
 30
0.0
 10
-102.5635801839483
 20
130.8180669805631
 30
0.0
 10
-111.5462087141277
 20
130.8180669805631
 30
0.0
 10
-111.5462087141277
 20
130.8180669805631
 30
0.0
  0
SPLINE
  5
9DE
330
A
100
AcDbEntity
  8
0
370
    13
100
AcDbSpline
210
0.0
220
0.0
230
1.0
 70
     8
 71
     3
 72
     8
 73
     4
 74
     0
 42
0.0000000001
 43
0.0000000001
 40
0.0
 40
0.0
 40
0.0
 40
0.0
 40
1.0
 40
1.0
 40
1.0
 40
1.0
 10
-111.5462087141277
 20
130.8180669805631
 30
0.0
 10
-111.5858724478464
 20
130.8180669805631
 30
0.0
 10
-111.6255361815651
 20
130.8187567846278
 30
0.0
 10
-111.6648550132515
 20
130.8201363927572
 30
0.0
  0
SPLINE
  5
9DF
330
A
100
AcDbEntity
  8
0
370
    13
100
AcDbSpline
210
0.0
220
0.0
230
1.0
 70
     8
 71
     3
 72
     8
 73
     4
 74
     0
 42
0.0000000001
 43
0.0000000001
 40
8.0
 40
8.0
 40
8.0
 40
8.0
 40
9.0
 40
9.0
 40
9.0
 40
9.0
 10
-93.57060459279898
 20
130.9270560227816
 30
0.0
 10
-93.30916885228772
 20
130.8546265959908
 30
0.0
 10
-93.03945546300038
 20
130.8180669805631
 30
0.0
 10
-92.76801756355132
 20
130.8180669805631
 30
0.0
  0
SPLINE
  5
9E0
330
A
100
AcDbEntity
  8
0
370
    13
100
AcDbSpline
210
0.0
220
0.0
230
1.0
 70
    24
 71
     3
 72
     8
 73
     4
 74
     0
 42
0.0000000001
 43
0.0000000001
 40
0.0
 40
0.0
 40
0.0
 40
0.0
 40
1.0
 40
1.0
 40
1.0
 40
1.0
 10
-92.76801756355132
 20
130.8180669805631
 30
0.0
 10
-92.76801756355132
 20
130.8180669805631
 30
0.0
 10
-73.56007848068326
 20
130.8180669805631
 30
0.0
 10
-73.56007848068326
 20
130.8180669805631
 30
0.0
  0
SPLINE
  5
9E1
330
A
100
AcDbEntity
  8
0
370
    13
100
AcDbSpline
210
0.0
220
0.0
230
1.0
 70
    24
 71
     3
 72
     8
 73
     4
 74
     0
 42
0.0000000001
 43
0.0000000001
 40
8.0
 40
8.0
 40
8.0
 40
8.0
 40
9.0
 40
9.0
 40
9.0
 40
9.0
 10
-65.60732741906161
 20
130.8180669805631
 30
0.0
 10
-65.60732741906161
 20
130.8180669805631
 30
0.0
 10
-52.8314663372423
 20
130.8180669805631
 30
0.0
 10
-52.8314663372423
 20
130.8180669805631
 30
0.0
  0
SPLINE
  5
9E2
330
A
100
AcDbEntity
  8
0
370
    13
100
AcDbSpline
210
0.0
220
0.0
230
1.0
 70
     8
 71
     3
 72
    11
 73
     7
 74
     0
 42
0.0000000001
 43
0.0000000001
 40
0.0
 40
0.0
 40
0.0
 40
0.0
 40
1.0
 40
1.0
 40
1.0
 40
2.0
 40
2.0
 40
2.0
 40
2.0
 10
-48.01042572923869
 20
127.3138623320214
 30
0.0
 10
-47.73415920133692
 20
127.3138623320214
 30
0.0
 10
-47.50962797828567
 20
127.5380486530403
 30
0.0
 10
-47.50962797828567
 20
127.8146600829743
 30
0.0
 10
-47.50962797828567
 20
127.8277663602032
 30
0.0
 10
-47.51031778235033
 20
127.8401828333673
 30
0.0
 10
-47.51169739047969
 20
127.8532891105961
 30
0.0
  0
LINE
  5
9E8
330
A
100
AcDbEntity
  8
0
370
    13
100
AcDbLine
 10
-81.50800091385219
 20
128.3147680298627
 30
0.0
 11
-73.49937572299197
 21
128.3147680298627
 31
0.0
  0
LINE
  5
9ED
330
A
100
AcDbEntity
  8
0
370
    13
100
AcDbLine
 10
-111.5431045958366
 20
128.3147680298627
 30
0.0
 11
-103.5334446988794
 21
128.3147680298627
 31
0.0
  0
LINE
  5
9F3
330
A
100
AcDbEntity
  8
0
370
    13
100
AcDbLine
 10
-117.0091120043101
 20
127.3138623320213
 30
0.0
 11
-111.5431045958366
 21
127.3138623320213
 31
0.0
  0
LINE
  5
9F4
330
A
100
AcDbEntity
  8
0
370
    13
100
AcDbLine
 10
-111.5431045958366
 20
127.3138623320213
 30
0.0
 11
-111.5431045958366
 21
128.3147680298627
 31
0.0
  0
LINE
  5
9F9
330
A
100
AcDbEntity
  8
0
370
    13
100
AcDbLine
 10
-91.52085181462148
 20
128.3147680298627
 30
0.0
 11
-83.51119191766427
 21
128.3147680298627
 31
0.0
  0
LINE
  5
9FA
330
A
100
AcDbEntity
  8
0
370
    13
100
AcDbLine
 10
-101.5316333031967
 20
128.3147680298627
 30
0.0
 11
-93.52266321030418
 21
128.3147680298627
 31
0.0
  0
LINE
  5
9FB
330
A
100
AcDbEntity
  8
0
370
    13
100
AcDbLine
 10
-103.5334446988794
 20
127.3138623320213
 30
0.0
 11
-101.5316333031967
 21
127.3138623320213
 31
0.0
  0
LINE
  5
9FC
330
A
100
AcDbEntity
  8
0
370
    13
100
AcDbLine
 10
-103.5334446988794
 20
128.3147680298627
 30
0.0
 11
-103.5334446988794
 21
127.3138623320213
 31
0.0
  0
LINE
  5
9FD
330
A
100
AcDbEntity
  8
0
370
    13
100
AcDbLine
 10
-101.5316333031967
 20
127.3138623320213
 30
0.0
 11
-101.5316333031967
 21
128.3147680298627
 31
0.0
  0
LINE
  5
9FE
330
A
100
AcDbEntity
  8
0
370
    13
100
AcDbLine
 10
-93.52266321030418
 20
128.3147680298627
 30
0.0
 11
-93.52266321030418
 21
127.3138623320213
 31
0.0
  0
LINE
  5
9FF
330
A
100
AcDbEntity
  8
0
370
    13
100
AcDbLine
 10
-93.52266321030418
 20
127.3138623320213
 30
0.0
 11
-91.52085181462148
 21
127.3138623320213
 31
0.0
  0
LINE
  5
A00
330
A
100
AcDbEntity
  8
0
370
    13
100
AcDbLine
 10
-91.52085181462148
 20
127.3138623320213
 30
0.0
 11
-91.52085181462148
 21
128.3147680298627
 31
0.0
  0
LINE
  5
A01
330
A
100
AcDbEntity
  8
0
370
    13
100
AcDbLine
 10
-83.51119191766427
 20
128.3147680298627
 30
0.0
 11
-83.51119191766427
 21
127.3138623320213
 31
0.0
  0
LINE
  5
A02
330
A
100
AcDbEntity
  8
0
370
    13
100
AcDbLine
 10
-83.51119191766427
 20
127.3138623320213
 30
0.0
 11
-83.01039416671123
 21
127.3138623320213
 31
0.0
  0
LINE
  5
A03
330
A
100
AcDbEntity
  8
0
370
    13
100
AcDbLine
 10
-83.01039416671123
 20
127.3138623320213
 30
0.0
 11
-82.50959641575823
 21
127.8146600829744
 31
0.0
  0
LINE
  5
A04
330
A
100
AcDbEntity
  8
0
370
    13
100
AcDbLine
 10
-82.50959641575823
 20
127.8146600829744
 30
0.0
 11
-82.00879866480519
 21
127.3138623320213
 31
0.0
  0
LINE
  5
A05
330
A
100
AcDbEntity
  8
0
370
    13
100
AcDbLine
 10
-82.00879866480519
 20
127.3138623320213
 30
0.0
 11
-81.50800091385219
 21
127.3138623320213
 31
0.0
  0
LINE
  5
A06
330
A
100
AcDbEntity
  8
0
370
    13
100
AcDbLine
 10
-81.50800091385219
 20
127.3138623320213
 30
0.0
 11
-81.50800091385219
 21
128.3147680298627
 31
0.0
  0
LINE
  5
A0F
330
A
100
AcDbEntity
  8
0
370
    13
100
AcDbLine
 10
-61.48643793670166
 20
128.3147680298627
 30
0.0
 11
-53.47677803974443
 21
128.3147680298627
 31
0.0
  0
LINE
  5
A10
330
A
100
AcDbEntity
  8
0
370
    13
100
AcDbLine
 10
-71.4968745232446
 20
128.3147680298627
 30
0.0
 11
-63.48824933238437
 21
128.3147680298627
 31
0.0
  0
LINE
  5
A11
330
A
100
AcDbEntity
  8
0
370
    13
100
AcDbLine
 10
-73.49937572299197
 20
127.3138623320213
 30
0.0
 11
-71.4968745232446
 21
127.3138623320213
 31
0.0
  0
LINE
  5
A12
330
A
100
AcDbEntity
  8
0
370
    13
100
AcDbLine
 10
-73.49937572299197
 20
128.3147680298627
 30
0.0
 11
-73.49937572299197
 21
127.3138623320213
 31
0.0
  0
LINE
  5
A13
330
A
100
AcDbEntity
  8
0
370
    13
100
AcDbLine
 10
-71.4968745232446
 20
127.3138623320213
 30
0.0
 11
-71.4968745232446
 21
128.3147680298627
 31
0.0
  0
LINE
  5
A14
330
A
100
AcDbEntity
  8
0
370
    13
100
AcDbLine
 10
-63.48824933238437
 20
128.3147680298627
 30
0.0
 11
-63.48824933238437
 21
127.3138623320213
 31
0.0
  0
LINE
  5
A15
330
A
100
AcDbEntity
  8
0
370
    13
100
AcDbLine
 10
-63.48824933238437
 20
127.3138623320213
 30
0.0
 11
-61.48643793670166
 21
127.3138623320213
 31
0.0
  0
LINE
  5
A16
330
A
100
AcDbEntity
  8
0
370
    13
100
AcDbLine
 10
-61.48643793670166
 20
127.3138623320213
 30
0.0
 11
-61.48643793670166
 21
128.3147680298627
 31
0.0
  0
LINE
  5
A17
330
A
100
AcDbEntity
  8
0
370
    13
100
AcDbLine
 10
-53.47677803974443
 20
127.3138623320213
 30
0.0
 11
-48.0104257292387
 21
127.3138623320213
 31
0.0
  0
LINE
  5
A18
330
A
100
AcDbEntity
  8
0
370
    13
100
AcDbLine
 10
-53.47677803974443
 20
128.3147680298627
 30
0.0
 11
-53.47677803974443
 21
127.3138623320213
 31
0.0
  0
SPLINE
  5
A1D
330
A
100
AcDbEntity
  8
0
370
    13
100
AcDbSpline
210
0.0
220
0.0
230
1.0
 70
     8
 71
     3
 72
     8
 73
     4
 74
     0
 42
0.0000000001
 43
0.0000000001
 40
1.0
 40
1.0
 40
1.0
 40
1.0
 40
2.0
 40
2.0
 40
2.0
 40
2.0
 10
-54.25246271046987
 20
185.9411075296456
 30
0.0
 10
-54.19796818936066
 20
186.1594305161148
 30
0.0
 10
-54.18175779384082
 20
186.3856862493277
 30
0.0
 10
-54.20452132797507
 20
186.6088378642496
 30
0.0
  0
SPLINE
  5
A1E
330
A
100
AcDbEntity
  8
0
370
    13
100
AcDbSpline
210
0.0
220
0.0
230
1.0
 70
     8
 71
     3
 72
     8
 73
     4
 74
     0
 42
0.0000000001
 43
0.0000000001
 40
0.0
 40
0.0
 40
0.0
 40
0.0
 40
1.0
 40
1.0
 40
1.0
 40
1.0
 10
-56.67195046731244
 20
184.4714799698586
 30
0.0
 10
-55.59758063658335
 20
184.2093544252826
 30
0.0
 10
-54.51389845098116
 20
184.8667376989165
 30
0.0
 10
-54.25246271046987
 20
185.9411075296456
 30
0.0
  0
SPLINE
  5
A23
330
A
100
AcDbEntity
  8
0
370
    13
100
AcDbSpline
210
0.0
220
0.0
230
1.0
 70
     8
 71
     3
 72
     8
 73
     4
 74
     0
 42
0.0000000001
 43
0.0000000001
 40
1.0
 40
1.0
 40
1.0
 40
1.0
 40
2.0
 40
2.0
 40
2.0
 40
2.0
 10
-61.80685192474254
 20
185.210260123124
 30
0.0
 10
-61.81547447555096
 20
185.1705963894053
 30
0.0
 10
-61.82030310400367
 20
185.1309326556864
 30
0.0
 10
-61.82030310400367
 20
185.0909240199355
 30
0.0
  0
SPLINE
  5
A24
330
A
100
AcDbEntity
  8
0
370
    13
100
AcDbSpline
210
0.0
220
0.0
230
1.0
 70
     8
 71
     3
 72
     8
 73
     4
 74
     0
 42
0.0000000001
 43
0.0000000001
 40
0.0
 40
0.0
 40
0.0
 40
0.0
 40
1.0
 40
1.0
 40
1.0
 40
1.0
 10
-61.20154885799148
 20
185.5775807875627
 30
0.0
 10
-61.47022754118183
 20
185.6431121737066
 30
0.0
 10
-61.74132053859855
 20
185.478593904282
 30
0.0
 10
-61.80685192474254
 20
185.210260123124
 30
0.0
  0
SPLINE
  5
A27
330
A
100
AcDbEntity
  8
0
370
    13
100
AcDbSpline
210
0.0
220
0.0
230
1.0
 70
     8
 71
     3
 72
     8
 73
     4
 74
     0
 42
0.0000000001
 43
0.0000000001
 40
1.0
 40
1.0
 40
1.0
 40
1.0
 40
2.0
 40
2.0
 40
2.0
 40
2.0
 10
-68.06337479133188
 20
165.3176905060674
 30
0.0
 10
-68.0054312498993
 20
165.2145647983987
 30
0.0
 10
-67.93196711701156
 20
165.1207514456031
 30
0.0
 10
-67.84643141299205
 20
165.0379749578422
 30
0.0
  0
SPLINE
  5
A28
330
A
100
AcDbEntity
  8
0
370
    13
100
AcDbSpline
210
0.0
220
0.0
230
1.0
 70
     8
 71
     3
 72
     8
 73
     4
 74
     0
 42
0.0000000001
 43
0.0000000001
 40
0.0
 40
0.0
 40
0.0
 40
0.0
 40
1.0
 40
1.0
 40
1.0
 40
1.0
 10
-67.59637743954787
 20
167.0249555661345
 30
0.0
 10
-68.1968518778462
 20
166.682467848024
 30
0.0
 10
-68.40655231350696
 20
165.9181649443658
 30
0.0
 10
-68.06337479133188
 20
165.3176905060674
 30
0.0
  0
SPLINE
  5
A29
330
A
100
AcDbEntity
  8
0
370
    13
100
AcDbSpline
210
0.0
220
0.0
230
1.0
 70
     8
 71
     3
 72
     8
 73
     4
 74
     0
 42
0.0000000001
 43
0.0000000001
 40
1.0
 40
1.0
 40
1.0
 40
1.0
 40
2.0
 40
2.0
 40
2.0
 40
2.0
 10
-67.4373776026406
 20
170.2839348696848
 30
0.0
 10
-67.37943406120803
 20
170.1808091620161
 30
0.0
 10
-67.3059699283203
 20
170.0869958092205
 30
0.0
 10
-67.22043422430077
 20
170.0042193214597
 30
0.0
  0
SPLINE
  5
A2A
330
A
100
AcDbEntity
  8
0
370
    13
100
AcDbSpline
210
0.0
220
0.0
230
1.0
 70
     8
 71
     3
 72
     8
 73
     4
 74
     0
 42
0.0000000001
 43
0.0000000001
 40
0.0
 40
0.0
 40
0.0
 40
0.0
 40
1.0
 40
1.0
 40
1.0
 40
1.0
 10
-66.9703802508566
 20
171.9915448317842
 30
0.0
 10
-67.57085468915493
 20
171.6487122116415
 30
0.0
 10
-67.78055512481572
 20
170.8844093079831
 30
0.0
 10
-67.4373776026406
 20
170.2839348696848
 30
0.0
  0
SPLINE
  5
A2B
330
A
100
AcDbEntity
  8
0
370
    13
100
AcDbSpline
210
0.0
220
0.0
230
1.0
 70
     8
 71
     3
 72
     8
 73
     4
 74
     0
 42
0.0000000001
 43
0.0000000001
 40
1.0
 40
1.0
 40
1.0
 40
1.0
 40
2.0
 40
2.0
 40
2.0
 40
2.0
 10
-69.31433446261739
 20
155.3848568768002
 30
0.0
 10
-69.25639092118482
 20
155.2817311691315
 30
0.0
 10
-69.18361659236175
 20
155.187917816336
 30
0.0
 10
-69.09739108427756
 20
155.1051413285751
 30
0.0
  0
SPLINE
  5
A2C
330
A
100
AcDbEntity
  8
0
370
    13
100
AcDbSpline
210
0.0
220
0.0
230
1.0
 70
     8
 71
     3
 72
     8
 73
     4
 74
     0
 42
0.0000000001
 43
0.0000000001
 40
0.0
 40
0.0
 40
0.0
 40
0.0
 40
1.0
 40
1.0
 40
1.0
 40
1.0
 10
-68.84802691489806
 20
157.0921219368673
 30
0.0
 10
-69.44850135319642
 20
156.7496342187569
 30
0.0
 10
-69.6575119847925
 20
155.9853313150986
 30
0.0
 10
-69.31433446261739
 20
155.3848568768002
 30
0.0
  0
SPLINE
  5
A2D
330
A
100
AcDbEntity
  8
0
370
    13
100
AcDbSpline
210
0.0
220
0.0
230
1.0
 70
     8
 71
     3
 72
     8
 73
     4
 74
     0
 42
0.0000000001
 43
0.0000000001
 40
1.0
 40
1.0
 40
1.0
 40
1.0
 40
2.0
 40
2.0
 40
2.0
 40
2.0
 10
-68.6890270779908
 20
160.3511012404176
 30
0.0
 10
-68.62970392842888
 20
160.2483204347812
 30
0.0
 10
-68.55761940367049
 20
160.1541621799533
 30
0.0
 10
-68.47139389558629
 20
160.0717305942248
 30
0.0
  0
SPLINE
  5
A2E
330
A
100
AcDbEntity
  8
0
370
    13
100
AcDbSpline
210
0.0
220
0.0
230
1.0
 70
     8
 71
     3
 72
     8
 73
     4
 74
     0
 42
0.0000000001
 43
0.0000000001
 40
0.0
 40
0.0
 40
0.0
 40
0.0
 40
1.0
 40
1.0
 40
1.0
 40
1.0
 10
-68.22202972620678
 20
162.0583663004847
 30
0.0
 10
-68.82250416450514
 20
161.7158785823743
 30
0.0
 10
-69.03151479610125
 20
160.951575678716
 30
0.0
 10
-68.6890270779908
 20
160.3511012404176
 30
0.0
  0
SPLINE
  5
A2F
330
A
100
AcDbEntity
  8
0
370
    13
100
AcDbSpline
210
0.0
220
0.0
230
1.0
 70
     8
 71
     3
 72
     8
 73
     4
 74
     0
 42
0.0000000001
 43
0.0000000001
 40
9.0
 40
9.0
 40
9.0
 40
9.0
 40
10.0
 40
10.0
 40
10.0
 40
10.0
 10
-66.27333324350395
 20
163.110317499112
 30
0.0
 10
-66.31644599754604
 20
162.7605868383225
 30
0.0
 10
-66.1736565561586
 20
162.4132704917593
 30
0.0
 10
-65.89601042012748
 20
162.1963271134195
 30
0.0
  0
SPLINE
  5
A30
330
A
100
AcDbEntity
  8
0
370
    13
100
AcDbSpline
210
0.0
220
0.0
230
1.0
 70
    24
 71
     3
 72
     8
 73
     4
 74
     0
 42
0.0000000001
 43
0.0000000001
 40
8.0
 40
8.0
 40
8.0
 40
8.0
 40
9.0
 40
9.0
 40
9.0
 40
9.0
 10
-64.77231959877426
 20
175.0221989899276
 30
0.0
 10
-64.77231959877426
 20
175.0221989899276
 30
0.0
 10
-66.27333324350395
 20
163.110317499112
 30
0.0
 10
-66.27333324350395
 20
163.110317499112
 30
0.0
  0
SPLINE
  5
A31
330
A
100
AcDbEntity
  8
0
370
    13
100
AcDbSpline
210
0.0
220
0.0
230
1.0
 70
     8
 71
     3
 72
     8
 73
     4
 74
     0
 42
0.0000000001
 43
0.0000000001
 40
7.0
 40
7.0
 40
7.0
 40
7.0
 40
8.0
 40
8.0
 40
8.0
 40
8.0
 10
-63.88592137566869
 20
175.8927317195456
 30
0.0
 10
-64.347055392903
 20
175.8430658268891
 30
0.0
 10
-64.71437605734165
 20
175.4829881051296
 30
0.0
 10
-64.77231959877426
 20
175.0221989899276
 30
0.0
  0
SPLINE
  5
A32
330
A
100
AcDbEntity
  8
0
370
    13
100
AcDbSpline
210
0.0
220
0.0
230
1.0
 70
    24
 71
     3
 72
     8
 73
     4
 74
     0
 42
0.0000000001
 43
0.0000000001
 40
6.0
 40
6.0
 40
6.0
 40
6.0
 40
7.0
 40
7.0
 40
7.0
 40
7.0
 10
-54.44664255467549
 20
176.8991558499044
 30
0.0
 10
-54.44664255467549
 20
176.8991558499044
 30
0.0
 10
-63.88592137566869
 20
175.8927317195456
 30
0.0
 10
-63.88592137566869
 20
175.8927317195456
 30
0.0
  0
SPLINE
  5
A33
330
A
100
AcDbEntity
  8
0
370
    13
100
AcDbSpline
210
0.0
220
0.0
230
1.0
 70
     8
 71
     3
 72
     8
 73
     4
 74
     0
 42
0.0000000001
 43
0.0000000001
 40
5.0
 40
5.0
 40
5.0
 40
5.0
 40
6.0
 40
6.0
 40
6.0
 40
6.0
 10
-54.42284431444424
 20
176.9012252620984
 30
0.0
 10
-54.43043215915565
 20
176.9005354580337
 30
0.0
 10
-54.43836490589941
 20
176.8998456539691
 30
0.0
 10
-54.44664255467549
 20
176.8991558499044
 30
0.0
  0
SPLINE
  5
A34
330
A
100
AcDbEntity
  8
0
370
    13
100
AcDbSpline
210
0.0
220
0.0
230
1.0
 70
     8
 71
     3
 72
     8
 73
     4
 74
     0
 42
0.0000000001
 43
0.0000000001
 40
4.0
 40
4.0
 40
4.0
 40
4.0
 40
5.0
 40
5.0
 40
5.0
 40
5.0
 10
-53.34192134510074
 20
175.9865450723412
 30
0.0
 10
-53.38848311946621
 20
176.5373536179831
 30
0.0
 10
-53.87169086677006
 20
176.9470972323992
 30
0.0
 10
-54.42284431444424
 20
176.9012252620984
 30
0.0
  0
SPLINE
  5
A35
330
A
100
AcDbEntity
  8
0
370
    13
100
AcDbSpline
210
0.0
220
0.0
230
1.0
 70
    24
 71
     3
 72
     8
 73
     4
 74
     0
 42
0.0000000001
 43
0.0000000001
 40
3.0
 40
3.0
 40
3.0
 40
3.0
 40
4.0
 40
4.0
 40
4.0
 40
4.0
 10
-51.42702526156693
 20
153.035384232522
 30
0.0
 10
-51.42702526156693
 20
153.035384232522
 30
0.0
 10
-53.34192134510074
 20
175.9865450723412
 30
0.0
 10
-53.34192134510074
 20
175.9865450723412
 30
0.0
  0
SPLINE
  5
A36
330
A
100
AcDbEntity
  8
0
370
    13
100
AcDbSpline
210
0.0
220
0.0
230
1.0
 70
     8
 71
     3
 72
     8
 73
     4
 74
     0
 42
0.0000000001
 43
0.0000000001
 40
2.0
 40
2.0
 40
2.0
 40
2.0
 40
3.0
 40
3.0
 40
3.0
 40
3.0
 10
-51.63534608909832
 20
152.3362678129754
 30
0.0
 10
-51.48151978267613
 20
152.534586481569
 30
0.0
 10
-51.40598623759436
 20
152.7846404550133
 30
0.0
 10
-51.42702526156693
 20
153.035384232522
 30
0.0
  0
SPLINE
  5
A37
330
A
100
AcDbEntity
  8
0
370
    13
100
AcDbSpline
210
0.0
220
0.0
230
1.0
 70
     8
 71
     3
 72
     8
 73
     4
 74
     0
 42
0.0000000001
 43
0.0000000001
 40
1.0
 40
1.0
 40
1.0
 40
1.0
 40
2.0
 40
2.0
 40
2.0
 40
2.0
 10
-53.04047696883841
 20
152.1631269927423
 30
0.0
 10
-52.60521060402937
 20
151.8227086868259
 30
0.0
 10
-51.97576439501473
 20
151.9003116441016
 30
0.0
 10
-51.63534608909832
 20
152.3362678129754
 30
0.0
  0
SPLINE
  5
A38
330
A
100
AcDbEntity
  8
0
370
    13
100
AcDbSpline
210
0.0
220
0.0
230
1.0
 70
    24
 71
     3
 72
     8
 73
     4
 74
     0
 42
0.0000000001
 43
0.0000000001
 40
0.0
 40
0.0
 40
0.0
 40
0.0
 40
1.0
 40
1.0
 40
1.0
 40
1.0
 10
-65.89601042012748
 20
162.1963271134195
 30
0.0
 10
-65.89601042012748
 20
162.1963271134195
 30
0.0
 10
-53.04047696883841
 20
152.1631269927423
 30
0.0
 10
-53.04047696883841
 20
152.1631269927423
 30
0.0
  0
SPLINE
  5
A3B
330
A
100
AcDbEntity
  8
0
370
    13
100
AcDbSpline
210
0.0
220
0.0
230
1.0
 70
     8
 71
     3
 72
     8
 73
     4
 74
     0
 42
0.0000000001
 43
0.0000000001
 40
1.0
 40
1.0
 40
1.0
 40
1.0
 40
2.0
 40
2.0
 40
2.0
 40
2.0
 10
-93.64130950942801
 20
141.3211053164422
 30
0.0
 10
-93.60026616757997
 20
141.3159317859571
 30
0.0
 10
-93.56129223792592
 20
141.3138623737632
 30
0.0
 10
-93.52128360217482
 20
141.3138623737632
 30
0.0
  0
SPLINE
  5
A3C
330
A
100
AcDbEntity
  8
0
370
    13
100
AcDbSpline
210
0.0
220
0.0
230
1.0
 70
     8
 71
     3
 72
     8
 73
     4
 74
     0
 42
0.0000000001
 43
0.0000000001
 40
0.0
 40
0.0
 40
0.0
 40
0.0
 40
1.0
 40
1.0
 40
1.0
 40
1.0
 10
-94.51494635733713
 20
142.4341041747931
 30
0.0
 10
-94.58082264551343
 20
141.8853650413452
 30
0.0
 10
-94.1893588388112
 20
141.3866367025862
 30
0.0
 10
-93.64130950942801
 20
141.3211053164422
 30
0.0
  0
SPLINE
  5
A4B
330
A
100
AcDbEntity
  8
0
370
    13
100
AcDbSpline
210
0.0
220
0.0
230
1.0
 70
     8
 71
     3
 72
     8
 73
     4
 74
     0
 42
0.0000000001
 43
0.0000000001
 40
1.0
 40
1.0
 40
1.0
 40
1.0
 40
2.0
 40
2.0
 40
2.0
 40
2.0
 10
-109.0077297561289
 20
184.5004517405748
 30
0.0
 10
-108.9435779781142
 20
184.4945884060251
 30
0.0
 10
-108.8790812980673
 20
184.4911393857018
 30
0.0
 10
-108.8149295200526
 20
184.4911393857018
 30
0.0
  0
SPLINE
  5
A4C
330
A
100
AcDbEntity
  8
0
370
    13
100
AcDbSpline
210
0.0
220
0.0
230
1.0
 70
     8
 71
     3
 72
     8
 73
     4
 74
     0
 42
0.0000000001
 43
0.0000000001
 40
0.0
 40
0.0
 40
0.0
 40
0.0
 40
1.0
 40
1.0
 40
1.0
 40
1.0
 10
-110.8081183649269
 20
186.6864408215254
 30
0.0
 10
-110.9140032888543
 20
185.585168632274
 30
0.0
 10
-110.1083121413156
 20
184.6070264685669
 30
0.0
 10
-109.0077297561289
 20
184.5004517405748
 30
0.0
  0
SPLINE
  5
A4D
330
A
100
AcDbEntity
  8
0
370
    13
100
AcDbSpline
210
0.0
220
0.0
230
1.0
 70
    24
 71
     3
 72
     8
 73
     4
 74
     0
 42
0.0000000001
 43
0.0000000001
 40
8.0
 40
8.0
 40
8.0
 40
8.0
 40
9.0
 40
9.0
 40
9.0
 40
9.0
 10
-95.4841210682035
 20
162.4074071572095
 30
0.0
 10
-95.4841210682035
 20
162.4074071572095
 30
0.0
 10
-112.0011344947799
 20
151.7478649458088
 30
0.0
 10
-112.0011344947799
 20
151.7478649458088
 30
0.0
  0
SPLINE
  5
A4E
330
A
100
AcDbEntity
  8
0
370
    13
100
AcDbSpline
210
0.0
220
0.0
230
1.0
 70
     8
 71
     3
 72
     8
 73
     4
 74
     0
 42
0.0000000001
 43
0.0000000001
 40
7.0
 40
7.0
 40
7.0
 40
7.0
 40
8.0
 40
8.0
 40
8.0
 40
8.0
 10
-95.02574626722791
 20
163.2303434063651
 30
0.0
 10
-95.03195450380998
 20
162.8971680431279
 30
0.0
 10
-95.20371571591372
 20
162.5881358221541
 30
0.0
 10
-95.4841210682035
 20
162.4074071572095
 30
0.0
  0
SPLINE
  5
A4F
330
A
100
AcDbEntity
  8
0
370
    13
100
AcDbSpline
210
0.0
220
0.0
230
1.0
 70
     8
 71
     3
 72
     8
 73
     4
 74
     0
 42
0.0000000001
 43
0.0000000001
 40
6.0
 40
6.0
 40
6.0
 40
6.0
 40
7.0
 40
7.0
 40
7.0
 40
7.0
 10
-95.90869547001007
 20
181.8012484355072
 30
0.0
 10
-95.20716473623705
 20
175.6368144115517
 30
0.0
 10
-94.91261840062144
 20
169.4337513599746
 30
0.0
 10
-95.02574626722791
 20
163.2303434063651
 30
0.0
  0
SPLINE
  5
A50
330
A
100
AcDbEntity
  8
0
370
    13
100
AcDbSpline
210
0.0
220
0.0
230
1.0
 70
     8
 71
     3
 72
     8
 73
     4
 74
     0
 42
0.0000000001
 43
0.0000000001
 40
5.0
 40
5.0
 40
5.0
 40
5.0
 40
6.0
 40
6.0
 40
6.0
 40
6.0
 10
-96.90373783330173
 20
182.6890262667421
 30
0.0
 10
-96.39466243357265
 20
182.6890262667421
 30
0.0
 10
-95.96663901144268
 20
182.3068748149129
 30
0.0
 10
-95.90869547001007
 20
181.8012484355072
 30
0.0
  0
SPLINE
  5
A51
330
A
100
AcDbEntity
  8
0
370
    13
100
AcDbSpline
210
0.0
220
0.0
230
1.0
 70
    24
 71
     3
 72
     8
 73
     4
 74
     0
 42
0.0000000001
 43
0.0000000001
 40
4.0
 40
4.0
 40
4.0
 40
4.0
 40
5.0
 40
5.0
 40
5.0
 40
5.0
 10
-109.9613838755401
 20
182.6890262667421
 30
0.0
 10
-109.9613838755401
 20
182.6890262667421
 30
0.0
 10
-96.90373783330173
 20
182.6890262667421
 30
0.0
 10
-96.90373783330173
 20
182.6890262667421
 30
0.0
  0
SPLINE
  5
A52
330
A
100
AcDbEntity
  8
0
370
    13
100
AcDbSpline
210
0.0
220
0.0
230
1.0
 70
     8
 71
     3
 72
     8
 73
     4
 74
     0
 42
0.0000000001
 43
0.0000000001
 40
3.0
 40
3.0
 40
3.0
 40
3.0
 40
4.0
 40
4.0
 40
4.0
 40
4.0
 10
-110.9567711408641
 20
181.7977994151838
 30
0.0
 10
-110.9008970116255
 20
182.3048054027188
 30
0.0
 10
-110.4721837854309
 20
182.6890262667421
 30
0.0
 10
-109.9613838755401
 20
182.6890262667421
 30
0.0
  0
SPLINE
  5
A53
330
A
100
AcDbEntity
  8
0
370
    13
100
AcDbSpline
210
0.0
220
0.0
230
1.0
 70
     8
 71
     3
 72
     8
 73
     4
 74
     0
 42
0.0000000001
 43
0.0000000001
 40
2.0
 40
2.0
 40
2.0
 40
2.0
 40
3.0
 40
3.0
 40
3.0
 40
3.0
 10
-113.542501677293
 20
152.6563368989839
 30
0.0
 10
-112.8882225219501
 20
162.3870579373017
 30
0.0
 10
-112.0259674411081
 20
172.1036379922937
 30
0.0
 10
-110.9567711408641
 20
181.7977994151838
 30
0.0
  0
SPLINE
  5
A54
330
A
100
AcDbEntity
  8
0
370
    13
100
AcDbSpline
210
0.0
220
0.0
230
1.0
 70
     8
 71
     3
 72
     8
 73
     4
 74
     0
 42
0.0000000001
 43
0.0000000001
 40
1.0
 40
1.0
 40
1.0
 40
1.0
 40
2.0
 40
2.0
 40
2.0
 40
2.0
 10
-112.6109212879513
 20
151.5895549129663
 30
0.0
 10
-113.1627645396902
 20
151.6271492344909
 30
0.0
 10
-113.5800959988177
 20
152.104493647245
 30
0.0
 10
-113.542501677293
 20
152.6563368989839
 30
0.0
  0
SPLINE
  5
A55
330
A
100
AcDbEntity
  8
0
370
    13
100
AcDbSpline
210
0.0
220
0.0
230
1.0
 70
     8
 71
     3
 72
     8
 73
     4
 74
     0
 42
0.0000000001
 43
0.0000000001
 40
0.0
 40
0.0
 40
0.0
 40
0.0
 40
1.0
 40
1.0
 40
1.0
 40
1.0
 10
-112.0011344947799
 20
151.7478649458088
 30
0.0
 10
-112.1818631597244
 20
151.6305982548143
 30
0.0
 10
-112.3960473218055
 20
151.5754139296404
 30
0.0
 10
-112.6109212879513
 20
151.5895549129663
 30
0.0
  0
SPLINE
  5
A64
330
A
100
AcDbEntity
  8
0
370
    13
100
AcDbSpline
210
0.0
220
0.0
230
1.0
 70
     8
 71
     3
 72
     8
 73
     4
 74
     0
 42
0.0000000001
 43
0.0000000001
 40
7.0
 40
7.0
 40
7.0
 40
7.0
 40
8.0
 40
8.0
 40
8.0
 40
8.0
 10
-95.16853570861536
 20
158.9376927119015
 30
0.0
 10
-95.57931402912847
 20
150.4855235074562
 30
0.0
 10
-96.74922172281485
 20
142.1699092180231
 30
0.0
 10
-98.66273819821932
 20
133.9173566431415
 30
0.0
  0
SPLINE
  5
A65
330
A
100
AcDbEntity
  8
0
370
    13
100
AcDbSpline
210
0.0
220
0.0
230
1.0
 70
     8
 71
     3
 72
     8
 73
     4
 74
     0
 42
0.0000000001
 43
0.0000000001
 40
6.0
 40
6.0
 40
6.0
 40
6.0
 40
7.0
 40
7.0
 40
7.0
 40
7.0
 10
-96.12046531786488
 20
159.98688469427
 30
0.0
 10
-95.56827716409367
 20
159.959292531683
 30
0.0
 10
-95.14232315415773
 20
159.490225767705
 30
0.0
 10
-95.16853570861536
 20
158.9376927119015
 30
0.0
  0
SPLINE
  5
A66
330
A
100
AcDbEntity
  8
0
370
    13
100
AcDbSpline
210
0.0
220
0.0
230
1.0
 70
     8
 71
     3
 72
     8
 73
     4
 74
     0
 42
0.0000000001
 43
0.0000000001
 40
5.0
 40
5.0
 40
5.0
 40
5.0
 40
6.0
 40
6.0
 40
6.0
 40
6.0
 10
-96.71093759722545
 20
159.8278848573627
 30
0.0
 10
-96.53572736479839
 20
159.9410127239692
 30
0.0
 10
-96.32878614539631
 20
159.9965419511754
 30
0.0
 10
-96.12046531786488
 20
159.98688469427
 30
0.0
  0
SPLINE
  5
A67
330
A
100
AcDbEntity
  8
0
370
    13
100
AcDbSpline
210
0.0
220
0.0
230
1.0
 70
    24
 71
     3
 72
     8
 73
     4
 74
     0
 42
0.0000000001
 43
0.0000000001
 40
4.0
 40
4.0
 40
4.0
 40
4.0
 40
5.0
 40
5.0
 40
5.0
 40
5.0
 10
-113.3652220326719
 20
149.0797028236515
 30
0.0
 10
-113.3652220326719
 20
149.0797028236515
 30
0.0
 10
-96.71093759722545
 20
159.8278848573627
 30
0.0
 10
-96.71093759722545
 20
159.8278848573627
 30
0.0
  0
SPLINE
  5
A68
330
A
100
AcDbEntity
  8
0
370
    13
100
AcDbSpline
210
0.0
220
0.0
230
1.0
 70
     8
 71
     3
 72
     8
 73
     4
 74
     0
 42
0.0000000001
 43
0.0000000001
 40
3.0
 40
3.0
 40
3.0
 40
3.0
 40
4.0
 40
4.0
 40
4.0
 40
4.0
 10
-113.8215274214535
 20
148.2995344265056
 30
0.0
 10
-113.8025578096749
 20
148.6171891982878
 30
0.0
 10
-113.6332109117976
 20
148.9069069054507
 30
0.0
 10
-113.3652220326719
 20
149.0797028236515
 30
0.0
  0
SPLINE
  5
A69
330
A
100
AcDbEntity
  8
0
370
    13
100
AcDbSpline
210
0.0
220
0.0
230
1.0
 70
     8
 71
     3
 72
     8
 73
     4
 74
     0
 42
0.0000000001
 43
0.0000000001
 40
2.0
 40
2.0
 40
2.0
 40
2.0
 40
3.0
 40
3.0
 40
3.0
 40
3.0
 10
-114.5468563954577
 20
133.9401201772757
 30
0.0
 10
-114.3561255715755
 20
138.6802167446326
 30
0.0
 10
-114.1146941489397
 20
143.4912551936985
 30
0.0
 10
-113.8215274214535
 20
148.2995344265056
 30
0.0
  0
SPLINE
  5
A6A
330
A
100
AcDbEntity
  8
0
370
    13
100
AcDbSpline
210
0.0
220
0.0
230
1.0
 70
    24
 71
     3
 72
     8
 73
     4
 74
     0
 42
0.0000000001
 43
0.0000000001
 40
6.0
 40
6.0
 40
6.0
 40
6.0
 40
7.0
 40
7.0
 40
7.0
 40
7.0
 10
-94.95642095872822
 20
137.1809013202714
 30
0.0
 10
-94.95642095872822
 20
137.1809013202714
 30
0.0
 10
-95.66278032095395
 20
134.6237160053672
 30
0.0
 10
-95.66278032095395
 20
134.6237160053672
 30
0.0
  0
SPLINE
  5
A6B
330
A
100
AcDbEntity
  8
0
370
    13
100
AcDbSpline
210
0.0
220
0.0
230
1.0
 70
     8
 71
     3
 72
     8
 73
     4
 74
     0
 42
0.0000000001
 43
0.0000000001
 40
5.0
 40
5.0
 40
5.0
 40
5.0
 40
6.0
 40
6.0
 40
6.0
 40
6.0
 10
-92.43484220031394
 20
139.3593025565106
 30
0.0
 10
-93.63855029316935
 20
139.2089252704117
 30
0.0
 10
-94.63221304833167
 20
138.3494294058285
 30
0.0
 10
-94.95642095872822
 20
137.1809013202714
 30
0.0
  0
SPLINE
  5
A6C
330
A
100
AcDbEntity
  8
0
370
    13
100
AcDbSpline
210
0.0
220
0.0
230
1.0
 70
     8
 71
     3
 72
     8
 73
     4
 74
     0
 42
0.0000000001
 43
0.0000000001
 40
4.0
 40
4.0
 40
4.0
 40
4.0
 40
5.0
 40
5.0
 40
5.0
 40
5.0
 10
-74.04190661985776
 20
138.9054114819554
 30
0.0
 10
-80.1166661154056
 20
139.971158761876
 30
0.0
 10
-86.31490053852999
 20
140.1242952642336
 30
0.0
 10
-92.43484220031394
 20
139.3593025565106
 30
0.0
  0
SPLINE
  5
A6D
330
A
100
AcDbEntity
  8
0
370
    13
100
AcDbSpline
210
0.0
220
0.0
230
1.0
 70
     8
 71
     3
 72
     8
 73
     4
 74
     0
 42
0.0000000001
 43
0.0000000001
 40
3.0
 40
3.0
 40
3.0
 40
3.0
 40
4.0
 40
4.0
 40
4.0
 40
4.0
 10
-71.55826708500052
 20
135.9468418485704
 30
0.0
 10
-71.55826708500052
 20
137.4050876412903
 30
0.0
 10
-72.60504475314269
 20
138.6529431942848
 30
0.0
 10
-74.04190661985776
 20
138.9054114819554
 30
0.0
  0
SPLINE
  5
A6E
330
A
100
AcDbEntity
  8
0
370
    13
100
AcDbSpline
210
0.0
220
0.0
230
1.0
 70
    24
 71
     3
 72
     8
 73
     4
 74
     0
 42
0.0000000001
 43
0.0000000001
 40
2.0
 40
2.0
 40
2.0
 40
2.0
 40
3.0
 40
3.0
 40
3.0
 40
3.0
 10
-71.55826708500052
 20
132.8198783762458
 30
0.0
 10
-71.55826708500052
 20
132.8198783762458
 30
0.0
 10
-71.55826708500052
 20
135.9468418485704
 30
0.0
 10
-71.55826708500052
 20
135.9468418485704
 30
0.0
  0
SPLINE
  5
A6F
330
A
100
AcDbEntity
  8
0
370
    13
100
AcDbSpline
210
0.0
220
0.0
230
1.0
 70
    24
 71
     3
 72
     8
 73
     4
 74
     0
 42
0.0000000001
 43
0.0000000001
 40
11.0
 40
11.0
 40
11.0
 40
11.0
 40
12.0
 40
12.0
 40
12.0
 40
12.0
 10
-49.83909630468834
 20
134.0711829495637
 30
0.0
 10
-49.83909630468834
 20
134.0711829495637
 30
0.0
 10
-51.03004302234726
 20
148.2809097167594
 30
0.0
 10
-51.03004302234726
 20
148.2809097167594
 30
0.0
  0
SPLINE
  5
A70
330
A
100
AcDbEntity
  8
0
370
    13
100
AcDbSpline
210
0.0
220
0.0
230
1.0
 70
    24
 71
     3
 72
     8
 73
     4
 74
     0
 42
0.0000000001
 43
0.0000000001
 40
6.0
 40
6.0
 40
6.0
 40
6.0
 40
7.0
 40
7.0
 40
7.0
 40
7.0
 10
-68.93632183517628
 20
141.7142936333062
 30
0.0
 10
-68.93632183517628
 20
141.7142936333062
 30
0.0
 10
-68.60556078616531
 20
133.6497126660481
 30
0.0
 10
-68.60556078616531
 20
133.6497126660481
 30
0.0
  0
SPLINE
  5
A71
330
A
100
AcDbEntity
  8
0
370
    13
100
AcDbSpline
210
0.0
220
0.0
230
1.0
 70
     8
 71
     3
 72
     8
 73
     4
 74
     0
 42
0.0000000001
 43
0.0000000001
 40
5.0
 40
5.0
 40
5.0
 40
5.0
 40
6.0
 40
6.0
 40
6.0
 40
6.0
 10
-68.91597261526841
 20
142.2130219720652
 30
0.0
 10
-68.93632183517628
 20
142.0478138985759
 30
0.0
 10
-68.94321987582301
 20
141.8805364128924
 30
0.0
 10
-68.93632183517628
 20
141.7142936333062
 30
0.0
  0
SPLINE
  5
A72
330
A
100
AcDbEntity
  8
0
370
    13
100
AcDbSpline
210
0.0
220
0.0
230
1.0
 70
    24
 71
     3
 72
     8
 73
     4
 74
     0
 42
0.0000000001
 43
0.0000000001
 40
4.0
 40
4.0
 40
4.0
 40
4.0
 40
5.0
 40
5.0
 40
5.0
 40
5.0
 10
-66.78275354526537
 20
159.0635819537044
 30
0.0
 10
-66.78275354526537
 20
159.0635819537044
 30
0.0
 10
-68.91597261526841
 20
142.2130219720652
 30
0.0
 10
-68.91597261526841
 20
142.2130219720652
 30
0.0
  0
SPLINE
  5
A73
330
A
100
AcDbEntity
  8
0
370
    13
100
AcDbSpline
210
0.0
220
0.0
230
1.0
 70
     8
 71
     3
 72
     8
 73
     4
 74
     0
 42
0.0000000001
 43
0.0000000001
 40
3.0
 40
3.0
 40
3.0
 40
3.0
 40
4.0
 40
4.0
 40
4.0
 40
4.0
 10
-66.57857154212199
 20
159.5543775457196
 30
0.0
 10
-66.68928509450211
 20
159.4119330063645
 30
0.0
 10
-66.75999001113116
 20
159.2422412064549
 30
0.0
 10
-66.78275354526537
 20
159.0635819537044
 30
0.0
  0
SPLINE
  5
A74
330
A
100
AcDbEntity
  8
0
370
    13
100
AcDbSpline
210
0.0
220
0.0
230
1.0
 70
     8
 71
     3
 72
     8
 73
     4
 74
     0
 42
0.0000000001
 43
0.0000000001
 40
2.0
 40
2.0
 40
2.0
 40
2.0
 40
3.0
 40
3.0
 40
3.0
 40
3.0
 10
-65.17344066238192
 20
159.7275183659528
 30
0.0
 10
-65.6100866353203
 20
160.0672468678045
 30
0.0
 10
-66.23815323620558
 20
159.9903337145934
 30
0.0
 10
-66.57857154212199
 20
159.5543775457196
 30
0.0
  0
SPLINE
  5
A75
330
A
100
AcDbEntity
  8
0
370
    13
100
AcDbSpline
210
0.0
220
0.0
230
1.0
 70
    24
 71
     3
 72
     8
 73
     4
 74
     0
 42
0.0000000001
 43
0.0000000001
 40
1.0
 40
1.0
 40
1.0
 40
1.0
 40
2.0
 40
2.0
 40
2.0
 40
2.0
 10
-51.41219447417643
 20
148.9865792749205
 30
0.0
 10
-51.41219447417643
 20
148.9865792749205
 30
0.0
 10
-65.17344066238192
 20
159.7275183659528
 30
0.0
 10
-65.17344066238192
 20
159.7275183659528
 30
0.0
  0
SPLINE
  5
A76
330
A
100
AcDbEntity
  8
0
370
    13
100
AcDbSpline
210
0.0
220
0.0
230
1.0
 70
     8
 71
     3
 72
     8
 73
     4
 74
     0
 42
0.0000000001
 43
0.0000000001
 40
0.0
 40
0.0
 40
0.0
 40
0.0
 40
1.0
 40
1.0
 40
1.0
 40
1.0
 10
-51.03004302234726
 20
148.2809097167594
 30
0.0
 10
-51.05418616461085
 20
148.5592456568552
 30
0.0
 10
-51.1924918795779
 20
148.8148180628168
 30
0.0
 10
-51.41219447417643
 20
148.9865792749205
 30
0.0
  0
SPLINE
  5
A77
330
A
100
AcDbEntity
  8
0
370
    13
100
AcDbSpline
210
0.0
220
0.0
230
1.0
 70
     8
 71
     3
 72
     8
 73
     4
 74
     0
 42
0.0000000001
 43
0.0000000001
 40
0.0
 40
0.0
 40
0.0
 40
0.0
 40
1.0
 40
1.0
 40
1.0
 40
1.0
 10
-52.51346666342779
 20
187.7249408408915
 30
0.0
 10
-52.73041004176763
 20
190.3186041240641
 30
0.0
 10
-54.89811931500435
 20
192.3138623811324
 30
0.0
 10
-57.50178475711474
 20
192.3138623811324
 30
0.0
  0
SPLINE
  5
A78
330
A
100
AcDbEntity
  8
0
370
    13
100
AcDbSpline
210
0.0
220
0.0
230
1.0
 70
     8
 71
     3
 72
     8
 73
     4
 74
     0
 42
0.0000000001
 43
0.0000000001
 40
0.0
 40
0.0
 40
0.0
 40
0.0
 40
1.0
 40
1.0
 40
1.0
 40
1.0
 10
-58.51752124234661
 20
192.3138623811324
 30
0.0
 10
-58.68341911990058
 20
192.3138623811324
 30
0.0
 10
-58.81758601047959
 20
192.1796954905534
 30
0.0
 10
-58.81758601047959
 20
192.0137976129995
 30
0.0
  0
SPLINE
  5
A79
330
A
100
AcDbEntity
  8
0
370
    13
100
AcDbSpline
210
0.0
220
0.0
230
1.0
 70
     8
 71
     3
 72
     8
 73
     4
 74
     0
 42
0.0000000001
 43
0.0000000001
 40
0.0
 40
0.0
 40
0.0
 40
0.0
 40
1.0
 40
1.0
 40
1.0
 40
1.0
 10
-54.40663391892442
 20
188.702393200534
 30
0.0
 10
-54.50596570423742
 20
189.7288216487682
 30
0.0
 10
-55.36787588304704
 20
190.512094164205
 30
0.0
 10
-56.39913295973403
 20
190.512094164205
 30
0.0
  0
SPLINE
  5
A7A
330
A
100
AcDbEntity
  8
0
370
    13
100
AcDbSpline
210
0.0
220
0.0
230
1.0
 70
     8
 71
     3
 72
     8
 73
     4
 74
     0
 42
0.0000000001
 43
0.0000000001
 40
0.0
 40
0.0
 40
0.0
 40
0.0
 40
1.0
 40
1.0
 40
1.0
 40
1.0
 10
-53.45435940764255
 20
181.4170275714839
 30
0.0
 10
-53.51437236126915
 20
182.1989204787914
 30
0.0
 10
-54.16692700645034
 20
182.8028439374131
 30
0.0
 10
-54.95123422798419
 20
182.8028439374131
 30
0.0
  0
SPLINE
  5
A7B
330
A
100
AcDbEntity
  8
0
370
    13
100
AcDbSpline
210
0.0
220
0.0
230
1.0
 70
     8
 71
     3
 72
     8
 73
     4
 74
     0
 42
0.0000000001
 43
0.0000000001
 40
0.0
 40
0.0
 40
0.0
 40
0.0
 40
1.0
 40
1.0
 40
1.0
 40
1.0
 10
-54.70531907892807
 20
178.6833340631826
 30
0.0
 10
-53.89790342122765
 20
178.7695595712668
 30
0.0
 10
-53.30536172967306
 20
179.4821271700746
 30
0.0
 10
-53.36744409549369
 20
180.292646946066
 30
0.0
  0
SPLINE
  5
A7C
330
A
100
AcDbEntity
  8
0
370
    13
100
AcDbSpline
210
0.0
220
0.0
230
1.0
 70
     8
 71
     3
 72
     8
 73
     4
 74
     0
 42
0.0000000001
 43
0.0000000001
 40
0.0
 40
0.0
 40
0.0
 40
0.0
 40
1.0
 40
1.0
 40
1.0
 40
1.0
 10
-64.70678821263025
 20
177.6168969791972
 30
0.0
 10
-65.63112565929285
 20
177.5185998999812
 30
0.0
 10
-66.36507718410553
 20
176.7980995544297
 30
0.0
 10
-66.48165407103535
 20
175.8765213240258
 30
0.0
  0
SPLINE
  5
A7D
330
A
100
AcDbEntity
  8
0
370
    13
100
AcDbSpline
210
0.0
220
0.0
230
1.0
 70
     8
 71
     3
 72
     8
 73
     4
 74
     0
 42
0.0000000001
 43
0.0000000001
 40
0.0
 40
0.0
 40
0.0
 40
0.0
 40
1.0
 40
1.0
 40
1.0
 40
1.0
 10
-71.7286486889749
 20
141.3138623737632
 30
0.0
 10
-71.22267740753686
 20
141.3138623737632
 30
0.0
 10
-70.79741320166559
 20
141.6891157849456
 30
0.0
 10
-70.73464103178029
 20
142.1899135358986
 30
0.0
  0
SPLINE
  5
A7E
330
A
100
AcDbEntity
  8
0
370
    13
100
AcDbSpline
210
0.0
220
0.0
230
1.0
 70
     8
 71
     3
 72
     8
 73
     4
 74
     0
 42
0.0000000001
 43
0.0000000001
 40
0.0
 40
0.0
 40
0.0
 40
0.0
 40
1.0
 40
1.0
 40
1.0
 40
1.0
 10
-94.51494635733713
 20
142.4341041747931
 30
0.0
 10
-92.86769425089664
 20
156.0474136809192
 30
0.0
 10
-92.79836894239693
 20
169.8876424345298
 30
0.0
 10
-94.3093847460644
 20
183.5995676321112
 30
0.0
  0
SPLINE
  5
A7F
330
A
100
AcDbEntity
  8
0
370
    13
100
AcDbSpline
210
0.0
220
0.0
230
1.0
 70
     8
 71
     3
 72
     8
 73
     4
 74
     0
 42
0.0000000001
 43
0.0000000001
 40
0.0
 40
0.0
 40
0.0
 40
0.0
 40
1.0
 40
1.0
 40
1.0
 40
1.0
 10
-94.3093847460644
 20
183.5995676321112
 30
0.0
 10
-94.36525887530297
 20
184.1069185216786
 30
0.0
 10
-94.79397210149759
 20
184.4911393857018
 30
0.0
 10
-95.30477201138836
 20
184.4911393857018
 30
0.0
  0
SPLINE
  5
A80
330
A
100
AcDbEntity
  8
0
370
    13
100
AcDbSpline
210
0.0
220
0.0
230
1.0
 70
     8
 71
     3
 72
     8
 73
     4
 74
     0
 42
0.0000000001
 43
0.0000000001
 40
0.0
 40
0.0
 40
0.0
 40
0.0
 40
1.0
 40
1.0
 40
1.0
 40
1.0
 10
-108.61971496975
 20
190.512094164205
 30
0.0
 10
-109.6513169484694
 20
190.512094164205
 30
0.0
 10
-110.5139169313437
 20
189.7288216487682
 30
0.0
 10
-110.6132487166567
 20
188.702393200534
 30
0.0
  0
SPLINE
  5
A81
330
A
100
AcDbEntity
  8
0
370
    13
100
AcDbSpline
210
0.0
220
0.0
230
1.0
 70
     8
 71
     3
 72
     8
 73
     4
 74
     0
 42
0.0000000001
 43
0.0000000001
 40
0.0
 40
0.0
 40
0.0
 40
0.0
 40
1.0
 40
1.0
 40
1.0
 40
1.0
 10
-106.2019517230691
 20
192.0137976129995
 30
0.0
 10
-106.2019517230691
 20
192.1796954905534
 30
0.0
 10
-106.3368084177128
 20
192.3138623811324
 30
0.0
 10
-106.5020164912021
 20
192.3138623811324
 30
0.0
  0
SPLINE
  5
A82
330
A
100
AcDbEntity
  8
0
370
    13
100
AcDbSpline
210
0.0
220
0.0
230
1.0
 70
     8
 71
     3
 72
     8
 73
     4
 74
     0
 42
0.0000000001
 43
0.0000000001
 40
0.0
 40
0.0
 40
0.0
 40
0.0
 40
1.0
 40
1.0
 40
1.0
 40
1.0
 10
-107.5180978784663
 20
192.3138623811324
 30
0.0
 10
-110.1207286144797
 20
192.3138623811324
 30
0.0
 10
-112.2894725938134
 20
190.3186041240641
 30
0.0
 10
-112.506071070121
 20
187.7249408408915
 30
0.0
  0
LINE
  5
A9F
330
A
100
AcDbEntity
  8
0
370
    13
100
AcDbLine
 10
-71.7286486889749
 20
141.3138623737632
 30
0.0
 11
-82.02500906032502
 21
141.3138623737632
 31
0.0
  0
LINE
  5
AA3
330
A
100
AcDbEntity
  8
0
370
    13
100
AcDbLine
 10
-95.30477201138836
 20
184.4911393857017
 30
0.0
 11
-106.2019517230691
 21
184.4911393857017
 31
0.0
  0
LINE
  5
AA8
330
A
100
AcDbEntity
  8
0
370
    13
100
AcDbLine
 10
-106.2019517230691
 20
184.4911393857017
 30
0.0
 11
-106.2019517230691
 21
185.4920450835431
 31
0.0
  0
LINE
  5
AA9
330
A
100
AcDbEntity
  8
0
370
    13
100
AcDbLine
 10
-106.7027494740222
 20
185.4920450835431
 30
0.0
 11
-106.7027494740222
 21
184.4911393857017
 31
0.0
  0
LINE
  5
AAA
330
A
100
AcDbEntity
  8
0
370
    13
100
AcDbLine
 10
-106.7027494740222
 20
184.4911393857017
 30
0.0
 11
-108.8149295200526
 21
184.4911393857017
 31
0.0
  0
LINE
  5
AAB
330
A
100
AcDbEntity
  8
0
370
    13
100
AcDbLine
 10
-110.8081183649269
 20
186.6864408215254
 30
0.0
 11
-110.6132487166566
 21
188.702393200534
 31
0.0
  0
LINE
  5
AAC
330
A
100
AcDbEntity
  8
0
370
    13
100
AcDbLine
 10
-106.2019517230691
 20
185.4920450835431
 30
0.0
 11
-106.7027494740222
 21
185.4920450835431
 31
0.0
  0
LINE
  5
AAD
330
A
100
AcDbEntity
  8
0
370
    13
100
AcDbLine
 10
-108.61971496975
 20
190.512094164205
 30
0.0
 11
-106.7027494740222
 21
190.512094164205
 31
0.0
  0
LINE
  5
AAE
330
A
100
AcDbEntity
  8
0
370
    13
100
AcDbLine
 10
-106.7027494740222
 20
190.512094164205
 30
0.0
 11
-106.7027494740222
 21
189.510498662299
 31
0.0
  0
LINE
  5
AAF
330
A
100
AcDbEntity
  8
0
370
    13
100
AcDbLine
 10
-106.7027494740222
 20
189.510498662299
 30
0.0
 11
-106.2019517230691
 21
189.510498662299
 31
0.0
  0
LINE
  5
AB0
330
A
100
AcDbEntity
  8
0
370
    13
100
AcDbLine
 10
-106.2019517230691
 20
189.510498662299
 30
0.0
 11
-106.2019517230691
 21
192.0137976129995
 31
0.0
  0
LINE
  5
AB1
330
A
100
AcDbEntity
  8
0
370
    13
100
AcDbLine
 10
-106.5020164912021
 20
192.3138623811324
 30
0.0
 11
-107.5180978784663
 21
192.3138623811324
 31
0.0
  0
LINE
  5
AB5
330
A
100
AcDbEntity
  8
0
370
    13
100
AcDbLine
 10
-82.9948735752561
 20
141.3138623737632
 30
0.0
 11
-93.52128360217482
 21
141.3138623737632
 31
0.0
  0
LINE
  5
AB8
330
A
100
AcDbEntity
  8
0
370
    13
100
AcDbLine
 10
-82.02500906032502
 20
141.3138623737632
 30
0.0
 11
-82.50959641575823
 21
140.8285852142653
 31
0.0
  0
LINE
  5
AB9
330
A
100
AcDbEntity
  8
0
370
    13
100
AcDbLine
 10
-82.50959641575823
 20
140.8285852142653
 30
0.0
 11
-82.9948735752561
 21
141.3138623737632
 31
0.0
  0
LINE
  5
AC0
330
A
100
AcDbEntity
  8
0
370
    13
100
AcDbLine
 10
-66.48165407103537
 20
175.8765213240258
 30
0.0
 11
-66.97038025085659
 21
171.9915448317842
 31
0.0
  0
LINE
  5
AC1
330
A
100
AcDbEntity
  8
0
370
    13
100
AcDbLine
 10
-69.09739108427756
 20
155.1051413285751
 30
0.0
 11
-70.73464103178029
 21
142.1899135358986
 31
0.0
  0
LINE
  5
AC2
330
A
100
AcDbEntity
  8
0
370
    13
100
AcDbLine
 10
-68.47139389558629
 20
160.0717305942248
 30
0.0
 11
-68.84802691489806
 21
157.0921219368673
 31
0.0
  0
LINE
  5
AC3
330
A
100
AcDbEntity
  8
0
370
    13
100
AcDbLine
 10
-67.84643141299203
 20
165.0379749578422
 30
0.0
 11
-68.22202972620678
 21
162.0583663004847
 31
0.0
  0
LINE
  5
AC4
330
A
100
AcDbEntity
  8
0
370
    13
100
AcDbLine
 10
-67.22043422430076
 20
170.0042193214597
 30
0.0
 11
-67.59637743954787
 21
167.0249555661345
 31
0.0
  0
LINE
  5
AC5
330
A
100
AcDbEntity
  8
0
370
    13
100
AcDbLine
 10
-56.67195046731245
 20
184.4714799698586
 30
0.0
 11
-61.20154885799149
 21
185.5775807875626
 31
0.0
  0
LINE
  5
AC6
330
A
100
AcDbEntity
  8
0
370
    13
100
AcDbLine
 10
-61.82030310400368
 20
182.8028439374131
 30
0.0
 11
-54.9512342279842
 21
182.8028439374131
 31
0.0
  0
LINE
  5
AC7
330
A
100
AcDbEntity
  8
0
370
    13
100
AcDbLine
 10
-54.70531907892809
 20
178.6833340631826
 30
0.0
 11
-64.70678821263025
 21
177.6168969791972
 31
0.0
  0
LINE
  5
ACA
330
A
100
AcDbEntity
  8
0
370
    13
100
AcDbLine
 10
-61.82030310400368
 20
185.0909240199354
 30
0.0
 11
-61.82030310400368
 21
182.8028439374131
 31
0.0
  0
LINE
  5
ACC
330
A
100
AcDbEntity
  8
0
370
    13
100
AcDbLine
 10
-53.45435940764254
 20
181.417027571484
 30
0.0
 11
-53.36744409549368
 21
180.292646946066
 31
0.0
  0
LINE
  5
ACD
330
A
100
AcDbEntity
  8
0
370
    13
100
AcDbLine
 10
-58.31678825952659
 20
190.512094164205
 30
0.0
 11
-56.39913295973404
 21
190.512094164205
 31
0.0
  0
LINE
  5
AD2
330
A
100
AcDbEntity
  8
0
370
    13
100
AcDbLine
 10
-57.50178475711475
 20
192.3138623811324
 30
0.0
 11
-58.51752124234661
 21
192.3138623811324
 31
0.0
  0
LINE
  5
AD3
330
A
100
AcDbEntity
  8
0
370
    13
100
AcDbLine
 10
-58.8175860104796
 20
192.0137976129995
 30
0.0
 11
-58.8175860104796
 21
189.510498662299
 31
0.0
  0
LINE
  5
AD4
330
A
100
AcDbEntity
  8
0
370
    13
100
AcDbLine
 10
-58.8175860104796
 20
189.510498662299
 30
0.0
 11
-58.31678825952659
 21
189.510498662299
 31
0.0
  0
LINE
  5
AD5
330
A
100
AcDbEntity
  8
0
370
    13
100
AcDbLine
 10
-58.31678825952659
 20
189.510498662299
 30
0.0
 11
-58.31678825952659
 21
190.512094164205
 31
0.0
  0
LINE
  5
AD8
330
A
100
AcDbEntity
  8
0
370
    13
100
AcDbLine
 10
-54.40663391892442
 20
188.702393200534
 30
0.0
 11
-54.20452132797507
 21
186.6088378642496
 31
0.0
  0
SPLINE
  5
ADC
102
{ACAD_REACTORS
330
B0C
102
}
330
A
100
AcDbEntity
  8
0
 62
   253
370
    13
100
AcDbSpline
210
0.0
220
0.0
230
1.0
 70
     8
 71
     3
 72
    11
 73
     7
 74
     0
 42
0.0000000001
 43
0.0000000001
 40
0.0
 40
0.0
 40
0.0
 40
0.0
 40
1.0
 40
1.0
 40
1.0
 40
2.0
 40
2.0
 40
2.0
 40
2.0
 10
-103.1985448254804
 20
187.783250873734
 30
0.0
 10
-103.1985448254804
 20
187.2293382098011
 30
0.0
 10
-102.7501721834426
 20
186.7809655677633
 30
0.0
 10
-102.197639127639
 20
186.7809655677633
 30
0.0
 10
-102.1821185361839
 20
186.7809655677633
 30
0.0
 10
-102.1672877487934
 20
186.781655371828
 30
0.0
 10
-102.1517671573382
 20
186.7830349799573
 30
0.0
  0
SPLINE
  5
ADD
102
{ACAD_REACTORS
330
B0C
102
}
330
A
100
AcDbEntity
  8
0
 62
   253
370
    13
100
AcDbSpline
210
0.0
220
0.0
230
1.0
 70
     8
 71
     3
 72
     8
 73
     4
 74
     0
 42
0.0000000001
 43
0.0000000001
 40
0.0
 40
0.0
 40
0.0
 40
0.0
 40
1.0
 40
1.0
 40
1.0
 40
1.0
 10
-95.65001894575747
 20
187.4073076584869
 30
0.0
 10
-95.15853354967754
 20
187.4793921832453
 30
0.0
 10
-94.79397210149755
 20
187.9005175647286
 30
0.0
 10
-94.79397210149755
 20
188.3975213933258
 30
0.0
  0
SPLINE
  5
ADE
102
{ACAD_REACTORS
330
B0C
102
}
330
A
100
AcDbEntity
  8
0
 62
   253
370
    13
100
AcDbSpline
210
0.0
220
0.0
230
1.0
 70
     8
 71
     3
 72
     8
 73
     4
 74
     0
 42
0.0000000001
 43
0.0000000001
 40
0.0
 40
0.0
 40
0.0
 40
0.0
 40
1.0
 40
1.0
 40
1.0
 40
1.0
 10
-102.1517671573382
 20
186.7830349799573
 30
0.0
 10
-99.97509043126084
 20
186.8802973530763
 30
0.0
 10
-97.80600154989471
 20
187.0893079846724
 30
0.0
 10
-95.65001894575747
 20
187.4073076584869
 30
0.0
  0
SPLINE
  5
ADF
102
{ACAD_REACTORS
330
B0C
102
}
330
A
100
AcDbEntity
  8
0
 62
   253
370
    13
100
AcDbSpline
210
0.0
220
0.0
230
1.0
 70
     8
 71
     3
 72
     8
 73
     4
 74
     0
 42
0.0000000001
 43
0.0000000001
 40
0.0
 40
0.0
 40
0.0
 40
0.0
 40
1.0
 40
1.0
 40
1.0
 40
1.0
 10
-94.21039786278374
 20
186.6205861227268
 30
0.0
 10
-93.96965624421264
 20
186.6605947584778
 30
0.0
 10
-93.79306640365621
 20
186.8692604880416
 30
0.0
 10
-93.79306640365621
 20
187.113451126936
 30
0.0
  0
SPLINE
  5
AE0
102
{ACAD_REACTORS
330
B0C
102
}
330
A
100
AcDbEntity
  8
0
 62
   253
370
    13
100
AcDbSpline
210
0.0
220
0.0
230
1.0
 70
     8
 71
     3
 72
     8
 73
     4
 74
     0
 42
0.0000000001
 43
0.0000000001
 40
0.0
 40
0.0
 40
0.0
 40
0.0
 40
1.0
 40
1.0
 40
1.0
 40
1.0
 10
-106.2019517230691
 20
185.7248755447481
 30
0.0
 10
-102.1862573605719
 20
185.6555502362484
 30
0.0
 10
-98.17194260620409
 20
185.9549252003167
 30
0.0
 10
-94.21039786278374
 20
186.6205861227268
 30
0.0
  0
SPLINE
  5
AE1
102
{ACAD_REACTORS
330
B0C
102
}
330
A
100
AcDbEntity
  8
0
 62
   253
370
    13
100
AcDbSpline
210
0.0
220
0.0
230
1.0
 70
     8
 71
     3
 72
     8
 73
     4
 74
     0
 42
0.0000000001
 43
0.0000000001
 40
0.0
 40
0.0
 40
0.0
 40
0.0
 40
1.0
 40
1.0
 40
1.0
 40
1.0
 10
-101.9717282964584
 20
191.0649937114185
 30
0.0
 10
-102.363537005193
 20
190.9242736822251
 30
0.0
 10
-102.69222864201
 20
190.646627546194
 30
0.0
 10
-102.8977902532827
 20
190.2844804122404
 30
0.0
  0
SPLINE
  5
AE2
102
{ACAD_REACTORS
330
B0C
102
}
330
A
100
AcDbEntity
  8
0
 62
   253
370
    13
100
AcDbSpline
210
0.0
220
0.0
230
1.0
 70
     8
 71
     3
 72
     8
 73
     4
 74
     0
 42
0.0000000001
 43
0.0000000001
 40
0.0
 40
0.0
 40
0.0
 40
0.0
 40
1.0
 40
1.0
 40
1.0
 40
1.0
 10
-93.80927679917608
 20
193.765921526648
 30
0.0
 10
-94.05933077262019
 20
193.412741845535
 30
0.0
 10
-94.20005080181363
 20
192.9954103864076
 30
0.0
 10
-94.21488158920409
 20
192.5653175520836
 30
0.0
  0
SPLINE
  5
AE3
102
{ACAD_REACTORS
330
B0C
102
}
330
A
100
AcDbEntity
  8
0
 62
   253
370
    13
100
AcDbSpline
210
0.0
220
0.0
230
1.0
 70
     8
 71
     3
 72
     8
 73
     4
 74
     0
 42
0.0000000001
 43
0.0000000001
 40
0.0
 40
0.0
 40
0.0
 40
0.0
 40
1.0
 40
1.0
 40
1.0
 40
1.0
 10
-93.80927679917608
 20
193.765921526648
 30
0.0
 10
-92.72938853592952
 20
194.7230246663825
 30
0.0
 10
-91.74469323360801
 20
195.7825637097212
 30
0.0
 10
-90.86864207147257
 20
196.9290180652085
 30
0.0
  0
SPLINE
  5
AE4
102
{ACAD_REACTORS
330
B0C
102
}
330
A
100
AcDbEntity
  8
0
 62
   253
370
    13
100
AcDbSpline
210
0.0
220
0.0
230
1.0
 70
     8
 71
     3
 72
    11
 73
     7
 74
     0
 42
0.0000000001
 43
0.0000000001
 40
0.0
 40
0.0
 40
0.0
 40
0.0
 40
1.0
 40
1.0
 40
1.0
 40
2.0
 40
2.0
 40
2.0
 40
2.0
 10
-94.79397210149755
 20
191.3729912262953
 30
0.0
 10
-94.79397210149755
 20
191.9251793800665
 30
0.0
 10
-95.24268964556776
 20
192.3745867282014
 30
0.0
 10
-95.79556760340361
 20
192.3745867282014
 30
0.0
 10
-95.85075192857747
 20
192.3745867282014
 30
0.0
 10
-95.90662605781602
 20
192.3694131977163
 30
0.0
 10
-95.96077567689292
 20
192.3597559408108
 30
0.0
  0
SPLINE
  5
AE5
102
{ACAD_REACTORS
330
B0C
102
}
330
A
100
AcDbEntity
  8
0
 62
   253
370
    13
100
AcDbSpline
210
0.0
220
0.0
230
1.0
 70
     8
 71
     3
 72
     8
 73
     4
 74
     0
 42
0.0000000001
 43
0.0000000001
 40
0.0
 40
0.0
 40
0.0
 40
0.0
 40
1.0
 40
1.0
 40
1.0
 40
1.0
 10
-95.96077567689292
 20
192.3597559408108
 30
0.0
 10
-98.01639178962018
 20
192.2204155197468
 30
0.0
 10
-100.040966719437
 20
191.7841144488407
 30
0.0
 10
-101.9717282964584
 20
191.0649937114185
 30
0.0
  0
SPLINE
  5
AE6
102
{ACAD_REACTORS
330
B0C
102
}
330
A
100
AcDbEntity
  8
0
 62
   253
370
    13
100
AcDbSpline
210
0.0
220
0.0
230
1.0
 70
     8
 71
     3
 72
     8
 73
     4
 74
     0
 42
0.0000000001
 43
0.0000000001
 40
0.0
 40
0.0
 40
0.0
 40
0.0
 40
1.0
 40
1.0
 40
1.0
 40
1.0
 10
-107.684685560085
 20
192.9598854770769
 30
0.0
 10
-101.8134182636158
 20
192.2876714160524
 30
0.0
 10
-95.90214233139567
 20
193.8373162473416
 30
0.0
 10
-91.11800624085205
 20
197.3056510845204
 30
0.0
  0
SPLINE
  5
AE7
102
{ACAD_REACTORS
330
B0C
102
}
330
A
100
AcDbEntity
  8
0
 62
   253
370
    13
100
AcDbSpline
210
0.0
220
0.0
230
1.0
 70
     8
 71
     3
 72
     8
 73
     4
 74
     0
 42
0.0000000001
 43
0.0000000001
 40
0.0
 40
0.0
 40
0.0
 40
0.0
 40
1.0
 40
1.0
 40
1.0
 40
1.0
 10
-106.2019517230691
 20
189.410498662299
 30
0.0
 10
-105.4800717693882
 20
190.2906886488224
 30
0.0
 10
-105.5393949189501
 20
191.573379307083
 30
0.0
 10
-106.3399125360038
 20
192.3835541810421
 30
0.0
  0
SPLINE
  5
AE8
102
{ACAD_REACTORS
330
B0C
102
}
330
A
100
AcDbEntity
  8
0
 62
   253
370
    13
100
AcDbSpline
210
0.0
220
0.0
230
1.0
 70
     8
 71
     3
 72
     8
 73
     4
 74
     0
 42
0.0000000001
 43
0.0000000001
 40
0.0
 40
0.0
 40
0.0
 40
0.0
 40
1.0
 40
1.0
 40
1.0
 40
1.0
 10
-108.9490964106316
 20
188.4089031603929
 30
0.0
 10
-109.2681307905431
 20
187.8932746220495
 30
0.0
 10
-109.2681307905431
 20
187.2420995849976
 30
0.0
 10
-108.9490964106316
 20
186.7264710466541
 30
0.0
  0
SPLINE
  5
AE9
102
{ACAD_REACTORS
330
B0C
102
}
330
A
100
AcDbEntity
  8
0
 62
   253
370
    13
100
AcDbSpline
210
0.0
220
0.0
230
1.0
 70
     8
 71
     3
 72
     8
 73
     4
 74
     0
 42
0.0000000001
 43
0.0000000001
 40
0.0
 40
0.0
 40
0.0
 40
0.0
 40
1.0
 40
1.0
 40
1.0
 40
1.0
 10
-107.9381885538525
 20
192.7136254259884
 30
0.0
 10
-107.9381885538525
 20
192.5763544171184
 30
0.0
 10
-107.8260953933431
 20
192.4642612566089
 30
0.0
 10
-107.6874447763437
 20
192.4642612566089
 30
0.0
  0
SPLINE
  5
AF0
102
{ACAD_REACTORS
330
B0C
102
}
330
A
100
AcDbEntity
  8
0
 62
   253
370
    13
100
AcDbSpline
210
0.0
220
0.0
230
1.0
 70
     8
 71
     3
 72
     8
 73
     4
 74
     0
 42
0.0000000001
 43
0.0000000001
 40
0.0
 40
0.0
 40
0.0
 40
0.0
 40
1.0
 40
1.0
 40
1.0
 40
1.0
 10
-108.4041511995395
 20
190.0364958509902
 30
0.0
 10
-109.7685836394638
 20
189.5870885028554
 30
0.0
 10
-110.5087434008586
 20
188.1157364329067
 30
0.0
 10
-110.0586462486591
 20
186.7526836011117
 30
0.0
  0
SPLINE
  5
AF1
102
{ACAD_REACTORS
330
B0C
102
}
330
A
100
AcDbEntity
  8
0
 62
   253
370
    13
100
AcDbSpline
210
0.0
220
0.0
230
1.0
 70
     8
 71
     3
 72
     8
 73
     4
 74
     0
 42
0.0000000001
 43
0.0000000001
 40
1.0
 40
1.0
 40
1.0
 40
1.0
 40
2.0
 40
2.0
 40
2.0
 40
2.0
 10
-110.0586462486591
 20
186.7526836011117
 30
0.0
 10
-109.8010044305035
 20
185.9704457917719
 30
0.0
 10
-109.187078812944
 20
185.35617527218
 30
0.0
 10
-108.4041511995395
 20
185.0974987479274
 30
0.0
  0
SPLINE
  5
AF2
102
{ACAD_REACTORS
330
B0C
102
}
330
A
100
AcDbEntity
  8
0
 62
   253
370
    13
100
AcDbSpline
210
0.0
220
0.0
230
1.0
 70
     8
 71
     3
 72
     8
 73
     4
 74
     0
 42
0.0000000001
 43
0.0000000001
 40
0.0
 40
0.0
 40
0.0
 40
0.0
 40
1.0
 40
1.0
 40
1.0
 40
1.0
 10
-107.684685560085
 20
192.9598854770769
 30
0.0
 10
-107.8223014709873
 20
192.9622997913032
 30
0.0
 10
-107.9361191416585
 20
192.8512413368907
 30
0.0
 10
-107.9381885538525
 20
192.7136254259884
 30
0.0
  0
SPLINE
  5
AF3
102
{ACAD_REACTORS
330
B0C
102
}
330
A
100
AcDbEntity
  8
0
 62
   253
370
    13
100
AcDbSpline
210
0.0
220
0.0
230
1.0
 70
    24
 71
     3
 72
     8
 73
     4
 74
     0
 42
0.0000000001
 43
0.0000000001
 40
1.0
 40
1.0
 40
1.0
 40
1.0
 40
2.0
 40
2.0
 40
2.0
 40
2.0
 10
-107.9381885538525
 20
192.7136254259884
 30
0.0
 10
-107.9381885538525
 20
192.7129356219237
 30
0.0
 10
-107.9381885538525
 20
192.711211111762
 30
0.0
 10
-107.9381885538525
 20
192.7098315036326
 30
0.0
  0
SPLINE
  5
AF4
102
{ACAD_REACTORS
330
B0C
102
}
330
A
100
AcDbEntity
  8
0
 62
   253
370
    13
100
AcDbSpline
210
0.0
220
0.0
230
1.0
 70
     8
 71
     3
 72
     8
 73
     4
 74
     0
 42
0.0000000001
 43
0.0000000001
 40
0.0
 40
0.0
 40
0.0
 40
0.0
 40
1.0
 40
1.0
 40
1.0
 40
1.0
 10
-90.86864207147257
 20
196.9290180652085
 30
0.0
 10
-90.81932108084846
 20
197.0800851553722
 30
0.0
 10
-90.90140776454459
 20
197.2432238166675
 30
0.0
 10
-91.05247485470812
 20
197.2921999052592
 30
0.0
  0
SPLINE
  5
AF5
102
{ACAD_REACTORS
330
B0C
102
}
330
A
100
AcDbEntity
  8
0
 62
   253
370
    13
100
AcDbSpline
210
0.0
220
0.0
230
1.0
 70
     8
 71
     3
 72
     8
 73
     4
 74
     0
 42
0.0000000001
 43
0.0000000001
 40
1.0
 40
1.0
 40
1.0
 40
1.0
 40
2.0
 40
2.0
 40
2.0
 40
2.0
 10
-91.05247485470812
 20
197.2921999052592
 30
0.0
 10
-91.07351387868067
 20
197.299097945906
 30
0.0
 10
-91.09558760875021
 20
197.304271476391
 30
0.0
 10
-91.11800624085205
 20
197.3056510845204
 30
0.0
  0
LINE
  5
AF7
102
{ACAD_REACTORS
330
B0C
102
}
330
A
100
AcDbEntity
  8
0
 62
   253
370
    13
100
AcDbLine
 10
-106.2019517230691
 20
186.7264710466541
 30
0.0
 11
-106.2019517230691
 21
188.4089031603929
 31
0.0
  0
LINE
  5
AF9
102
{ACAD_REACTORS
330
B0C
102
}
330
A
100
AcDbEntity
  8
0
 62
   253
370
    13
100
AcDbLine
 10
-108.4041511995395
 20
185.7248755447481
 30
0.0
 11
-108.4041511995395
 21
185.0974987479274
 31
0.0
  0
LINE
  5
AFE
102
{ACAD_REACTORS
330
B0C
102
}
330
A
100
AcDbEntity
  8
0
 62
   253
370
    13
100
AcDbLine
 10
-108.9490964106317
 20
186.7264710466541
 30
0.0
 11
-106.2019517230691
 21
186.7264710466541
 31
0.0
  0
LINE
  5
AFF
102
{ACAD_REACTORS
330
B0C
102
}
330
A
100
AcDbEntity
  8
0
 62
   253
370
    13
100
AcDbLine
 10
-108.4041511995395
 20
185.7248755447481
 30
0.0
 11
-106.2019517230691
 21
185.7248755447481
 31
0.0
  0
LINE
  5
B00
102
{ACAD_REACTORS
330
B0C
102
}
330
A
100
AcDbEntity
  8
0
 62
   253
370
    13
100
AcDbLine
 10
-108.4041511995395
 20
190.0364958509903
 30
0.0
 11
-108.4041511995395
 21
189.410498662299
 31
0.0
  0
LINE
  5
B01
102
{ACAD_REACTORS
330
B0C
102
}
330
A
100
AcDbEntity
  8
0
 62
   253
370
    13
100
AcDbLine
 10
-106.3399125360038
 20
192.3835541810421
 30
0.0
 11
-107.6874447763437
 21
192.4642612566089
 31
0.0
  0
LINE
  5
B07
102
{ACAD_REACTORS
330
B0C
102
}
330
A
100
AcDbEntity
  8
0
 62
   253
370
    13
100
AcDbLine
 10
-106.2019517230691
 20
188.4089031603929
 30
0.0
 11
-108.9490964106317
 21
188.4089031603929
 31
0.0
  0
LINE
  5
B08
102
{ACAD_REACTORS
330
B0C
102
}
330
A
100
AcDbEntity
  8
0
 62
   253
370
    13
100
AcDbLine
 10
-106.2019517230691
 20
189.410498662299
 30
0.0
 11
-108.4041511995395
 21
189.410498662299
 31
0.0
  0
LINE
  5
B09
102
{ACAD_REACTORS
330
B0C
102
}
330
A
100
AcDbEntity
  8
0
 62
   253
370
    13
100
AcDbLine
 10
-102.8977902532827
 20
190.2844804122404
 30
0.0
 11
-103.1985448254804
 21
187.783250873734
 31
0.0
  0
LINE
  5
B0A
102
{ACAD_REACTORS
330
B0C
102
}
330
A
100
AcDbEntity
  8
0
 62
   253
370
    13
100
AcDbLine
 10
-93.79306640365621
 20
187.1134511269359
 30
0.0
 11
-94.21488158920411
 21
192.5653175520835
 31
0.0
  0
LINE
  5
B0B
102
{ACAD_REACTORS
330
B0C
102
}
330
A
100
AcDbEntity
  8
0
 62
   253
370
    13
100
AcDbLine
 10
-94.79397210149755
 20
188.3975213933258
 30
0.0
 11
-94.79397210149755
 21
191.3729912262953
 31
0.0
  0
SPLINE
  5
B0E
102
{ACAD_REACTORS
330
B26
102
}
330
A
100
AcDbEntity
  8
0
 62
   253
370
    13
100
AcDbSpline
210
0.0
220
0.0
230
1.0
 70
    24
 71
     3
 72
     8
 73
     4
 74
     0
 42
0.0000000001
 43
0.0000000001
 40
0.0
 40
0.0
 40
0.0
 40
0.0
 40
1.0
 40
1.0
 40
1.0
 40
1.0
 10
-74.22320127256258
 20
149.8047112128731
 30
0.0
 10
-74.22320127256258
 20
149.8047112128731
 30
0.0
 10
-72.08480867207446
 20
149.8047112128731
 30
0.0
 10
-72.08480867207446
 20
149.8047112128731
 30
0.0
  0
SPLINE
  5
B0F
102
{ACAD_REACTORS
330
B26
102
}
330
A
100
AcDbEntity
  8
0
 62
   253
370
    13
100
AcDbSpline
210
0.0
220
0.0
230
1.0
 70
    24
 71
     3
 72
     8
 73
     4
 74
     0
 42
0.0000000001
 43
0.0000000001
 40
1.0
 40
1.0
 40
1.0
 40
1.0
 40
2.0
 40
2.0
 40
2.0
 40
2.0
 10
-72.08480867207446
 20
149.8047112128731
 30
0.0
 10
-72.08480867207446
 20
149.8047112128731
 30
0.0
 10
-71.29670752818494
 20
158.8138971995423
 30
0.0
 10
-71.29670752818494
 20
158.8138971995423
 30
0.0
  0
SPLINE
  5
B10
102
{ACAD_REACTORS
330
B26
102
}
330
A
100
AcDbEntity
  8
0
 62
   253
370
    13
100
AcDbSpline
210
0.0
220
0.0
230
1.0
 70
     8
 71
     3
 72
     8
 73
     4
 74
     0
 42
0.0000000001
 43
0.0000000001
 40
2.0
 40
2.0
 40
2.0
 40
2.0
 40
3.0
 40
3.0
 40
3.0
 40
3.0
 10
-71.29670752818494
 20
158.8138971995423
 30
0.0
 10
-68.40194477078224
 20
160.0583037322135
 30
0.0
 10
-67.06406978734786
 20
163.4135107027858
 30
0.0
 10
-68.30882122205132
 20
166.3082734601884
 30
0.0
  0
SPLINE
  5
B11
102
{ACAD_REACTORS
330
B26
102
}
330
A
100
AcDbEntity
  8
0
 62
   253
370
    13
100
AcDbSpline
210
0.0
220
0.0
230
1.0
 70
     8
 71
     3
 72
     8
 73
     4
 74
     0
 42
0.0000000001
 43
0.0000000001
 40
3.0
 40
3.0
 40
3.0
 40
3.0
 40
4.0
 40
4.0
 40
4.0
 40
4.0
 10
-68.30882122205132
 20
166.3082734601884
 30
0.0
 10
-68.75098562750709
 20
167.336081516552
 30
0.0
 10
-69.4849371523198
 20
168.2110979725905
 30
0.0
 10
-70.4206563660495
 20
168.82502359015
 30
0.0
  0
SPLINE
  5
B12
102
{ACAD_REACTORS
330
B26
102
}
330
A
100
AcDbEntity
  8
0
 62
   253
370
    13
100
AcDbSpline
210
0.0
220
0.0
230
1.0
 70
    24
 71
     3
 72
     8
 73
     4
 74
     0
 42
0.0000000001
 43
0.0000000001
 40
4.0
 40
4.0
 40
4.0
 40
4.0
 40
5.0
 40
5.0
 40
5.0
 40
5.0
 10
-70.4206563660495
 20
168.82502359015
 30
0.0
 10
-70.4206563660495
 20
168.82502359015
 30
0.0
 10
-69.63255522215992
 20
177.8338646747869
 30
0.0
 10
-69.63255522215992
 20
177.8338646747869
 30
0.0
  0
SPLINE
  5
B13
102
{ACAD_REACTORS
330
B26
102
}
330
A
100
AcDbEntity
  8
0
 62
   253
370
    13
100
AcDbSpline
210
0.0
220
0.0
230
1.0
 70
    24
 71
     3
 72
     8
 73
     4
 74
     0
 42
0.0000000001
 43
0.0000000001
 40
5.0
 40
5.0
 40
5.0
 40
5.0
 40
6.0
 40
6.0
 40
6.0
 40
6.0
 10
-69.63255522215992
 20
177.8338646747869
 30
0.0
 10
-69.63255522215992
 20
177.8338646747869
 30
0.0
 10
-74.22320127256258
 20
177.8338646747869
 30
0.0
 10
-74.22320127256258
 20
177.8338646747869
 30
0.0
  0
SPLINE
  5
B14
102
{ACAD_REACTORS
330
B26
102
}
330
A
100
AcDbEntity
  8
0
 62
   253
370
    13
100
AcDbSpline
210
0.0
220
0.0
230
1.0
 70
    24
 71
     3
 72
     8
 73
     4
 74
     0
 42
0.0000000001
 43
0.0000000001
 40
6.0
 40
6.0
 40
6.0
 40
6.0
 40
7.0
 40
7.0
 40
7.0
 40
7.0
 10
-74.22320127256258
 20
177.8338646747869
 30
0.0
 10
-74.22320127256258
 20
177.8338646747869
 30
0.0
 10
-74.22320127256258
 20
149.8047112128731
 30
0.0
 10
-74.22320127256258
 20
149.8047112128731
 30
0.0
  0
SPLINE
  5
B15
102
{ACAD_REACTORS
330
B25
102
}
330
A
100
AcDbEntity
  8
0
 62
   253
370
    13
100
AcDbSpline
210
0.0
220
0.0
230
1.0
 70
    24
 71
     3
 72
     8
 73
     4
 74
     0
 42
0.0000000001
 43
0.0000000001
 40
0.0
 40
0.0
 40
0.0
 40
0.0
 40
1.0
 40
1.0
 40
1.0
 40
1.0
 10
-74.22320127256258
 20
154.8836422619398
 30
0.0
 10
-74.22320127256258
 20
154.8836422619398
 30
0.0
 10
-71.08321317016846
 20
154.8836422619398
 30
0.0
 10
-71.08321317016846
 20
154.8836422619398
 30
0.0
  0
SPLINE
  5
B16
102
{ACAD_REACTORS
330
B25
102
}
330
A
100
AcDbEntity
  8
0
 62
   253
370
    13
100
AcDbSpline
210
0.0
220
0.0
230
1.0
 70
    24
 71
     3
 72
     8
 73
     4
 74
     0
 42
0.0000000001
 43
0.0000000001
 40
1.0
 40
1.0
 40
1.0
 40
1.0
 40
2.0
 40
2.0
 40
2.0
 40
2.0
 10
-71.08321317016846
 20
154.8836422619398
 30
0.0
 10
-71.08321317016846
 20
154.8836422619398
 30
0.0
 10
-70.29580183034354
 20
163.8924833465767
 30
0.0
 10
-70.29580183034354
 20
163.8924833465767
 30
0.0
  0
SPLINE
  5
B17
102
{ACAD_REACTORS
330
B25
102
}
330
A
100
AcDbEntity
  8
0
 62
   253
370
    13
100
AcDbSpline
210
0.0
220
0.0
230
1.0
 70
     8
 71
     3
 72
     8
 73
     4
 74
     0
 42
0.0000000001
 43
0.0000000001
 40
2.0
 40
2.0
 40
2.0
 40
2.0
 40
3.0
 40
3.0
 40
3.0
 40
3.0
 10
-70.29580183034354
 20
163.8924833465767
 30
0.0
 10
-67.40103907294091
 20
165.1372347812802
 30
0.0
 10
-66.06316408950651
 20
168.4924417518524
 30
0.0
 10
-67.30791552420997
 20
171.3872045092551
 30
0.0
  0
SPLINE
  5
B18
102
{ACAD_REACTORS
330
B25
102
}
330
A
100
AcDbEntity
  8
0
 62
   253
370
    13
100
AcDbSpline
210
0.0
220
0.0
230
1.0
 70
     8
 71
     3
 72
     8
 73
     4
 74
     0
 42
0.0000000001
 43
0.0000000001
 40
3.0
 40
3.0
 40
3.0
 40
3.0
 40
4.0
 40
4.0
 40
4.0
 40
4.0
 10
-67.30791552420997
 20
171.3872045092551
 30
0.0
 10
-67.74939012560107
 20
172.4157023696834
 30
0.0
 10
-68.48403145447839
 20
173.2907188257219
 30
0.0
 10
-69.41975066820813
 20
173.9046444432813
 30
0.0
  0
SPLINE
  5
B19
102
{ACAD_REACTORS
330
B25
102
}
330
A
100
AcDbEntity
  8
0
 62
   253
370
    13
100
AcDbSpline
210
0.0
220
0.0
230
1.0
 70
    24
 71
     3
 72
     8
 73
     4
 74
     0
 42
0.0000000001
 43
0.0000000001
 40
4.0
 40
4.0
 40
4.0
 40
4.0
 40
5.0
 40
5.0
 40
5.0
 40
5.0
 10
-69.41975066820813
 20
173.9046444432813
 30
0.0
 10
-69.41975066820813
 20
173.9046444432813
 30
0.0
 10
-68.63164952431858
 20
182.9127957238535
 30
0.0
 10
-68.63164952431858
 20
182.9127957238535
 30
0.0
  0
SPLINE
  5
B1A
102
{ACAD_REACTORS
330
B25
102
}
330
A
100
AcDbEntity
  8
0
 62
   253
370
    13
100
AcDbSpline
210
0.0
220
0.0
230
1.0
 70
    24
 71
     3
 72
     8
 73
     4
 74
     0
 42
0.0000000001
 43
0.0000000001
 40
5.0
 40
5.0
 40
5.0
 40
5.0
 40
6.0
 40
6.0
 40
6.0
 40
6.0
 10
-68.63164952431858
 20
182.9127957238535
 30
0.0
 10
-68.63164952431858
 20
182.9127957238535
 30
0.0
 10
-74.22320127256258
 20
182.9127957238535
 30
0.0
 10
-74.22320127256258
 20
182.9127957238535
 30
0.0
  0
SPLINE
  5
B1B
102
{ACAD_REACTORS
330
B25
102
}
330
A
100
AcDbEntity
  8
0
 62
   253
370
    13
100
AcDbSpline
210
0.0
220
0.0
230
1.0
 70
    24
 71
     3
 72
     8
 73
     4
 74
     0
 42
0.0000000001
 43
0.0000000001
 40
6.0
 40
6.0
 40
6.0
 40
6.0
 40
7.0
 40
7.0
 40
7.0
 40
7.0
 10
-74.22320127256258
 20
182.9127957238535
 30
0.0
 10
-74.22320127256258
 20
182.9127957238535
 30
0.0
 10
-74.22320127256258
 20
154.8836422619398
 30
0.0
 10
-74.22320127256258
 20
154.8836422619398
 30
0.0
  0
SPLINE
  5
B28
102
{ACAD_REACTORS
330
B34
102
}
330
A
100
AcDbEntity
  8
0
 62
   253
370
    13
100
AcDbSpline
210
0.0
220
0.0
230
1.0
 70
     8
 71
     3
 72
     8
 73
     4
 74
     0
 42
0.0000000001
 43
0.0000000001
 40
0.0
 40
0.0
 40
0.0
 40
0.0
 40
1.0
 40
1.0
 40
1.0
 40
1.0
 10
-90.72320127256256
 20
145.6585950384767
 30
0.0
 10
-90.72320127256256
 20
145.3823285105749
 30
0.0
 10
-90.94738759358145
 20
145.1577972875237
 30
0.0
 10
-91.22434392554788
 20
145.1577972875237
 30
0.0
  0
SPLINE
  5
B29
102
{ACAD_REACTORS
330
B34
102
}
330
A
100
AcDbEntity
  8
0
 62
   253
370
    13
100
AcDbSpline
210
0.0
220
0.0
230
1.0
 70
    24
 71
     3
 72
     8
 73
     4
 74
     0
 42
0.0000000001
 43
0.0000000001
 40
1.0
 40
1.0
 40
1.0
 40
1.0
 40
2.0
 40
2.0
 40
2.0
 40
2.0
 10
-91.22434392554788
 20
145.1577972875237
 30
0.0
 10
-91.22434392554788
 20
145.1577972875237
 30
0.0
 10
-92.95816644210493
 20
145.1577972875237
 30
0.0
 10
-92.95816644210493
 20
145.1577972875237
 30
0.0
  0
SPLINE
  5
B2A
102
{ACAD_REACTORS
330
B34
102
}
330
A
100
AcDbEntity
  8
0
 62
   253
370
    13
100
AcDbSpline
210
0.0
220
0.0
230
1.0
 70
     8
 71
     3
 72
     8
 73
     4
 74
     0
 42
0.0000000001
 43
0.0000000001
 40
2.0
 40
2.0
 40
2.0
 40
2.0
 40
3.0
 40
3.0
 40
3.0
 40
3.0
 10
-92.95816644210493
 20
145.1577972875237
 30
0.0
 10
-93.10026607942772
 20
145.1577972875237
 30
0.0
 10
-93.23512277407141
 20
145.2178102411503
 30
0.0
 10
-93.32997083296399
 20
145.323005361013
 30
0.0
  0
SPLINE
  5
B2B
102
{ACAD_REACTORS
330
B34
102
}
330
A
100
AcDbEntity
  8
0
 62
   253
370
    13
100
AcDbSpline
210
0.0
220
0.0
230
1.0
 70
    24
 71
     3
 72
     8
 73
     4
 74
     0
 42
0.0000000001
 43
0.0000000001
 40
3.0
 40
3.0
 40
3.0
 40
3.0
 40
4.0
 40
4.0
 40
4.0
 40
4.0
 10
-93.32997083296399
 20
145.323005361013
 30
0.0
 10
-93.32997083296399
 20
145.323005361013
 30
0.0
 10
-93.93320448752104
 20
145.98970098952
 30
0.0
 10
-93.93320448752104
 20
145.98970098952
 30
0.0
  0
SPLINE
  5
B2C
102
{ACAD_REACTORS
330
B34
102
}
330
A
100
AcDbEntity
  8
0
 62
   253
370
    13
100
AcDbSpline
210
0.0
220
0.0
230
1.0
 70
     8
 71
     3
 72
     8
 73
     4
 74
     0
 42
0.0000000001
 43
0.0000000001
 40
4.0
 40
4.0
 40
4.0
 40
4.0
 40
5.0
 40
5.0
 40
5.0
 40
5.0
 10
-93.93320448752104
 20
145.98970098952
 30
0.0
 10
-94.02770764438134
 20
146.0942063053181
 30
0.0
 10
-94.07357961468212
 20
146.2335467263821
 30
0.0
 10
-94.06012843542095
 20
146.3746116576078
 30
0.0
  0
SPLINE
  5
B2D
102
{ACAD_REACTORS
330
B34
102
}
330
A
100
AcDbEntity
  8
0
 62
   253
370
    13
100
AcDbSpline
210
0.0
220
0.0
230
1.0
 70
     8
 71
     3
 72
     8
 73
     4
 74
     0
 42
0.0000000001
 43
0.0000000001
 40
5.0
 40
5.0
 40
5.0
 40
5.0
 40
6.0
 40
6.0
 40
6.0
 40
6.0
 10
-94.06012843542095
 20
146.3746116576078
 30
0.0
 10
-92.99231174330628
 20
157.4390688549719
 30
0.0
 10
-92.94988879332882
 20
168.5797494014826
 30
0.0
 10
-93.9345840956504
 20
179.6528291496552
 30
0.0
  0
SPLINE
  5
B2E
102
{ACAD_REACTORS
330
B34
102
}
330
A
100
AcDbEntity
  8
0
 62
   253
370
    13
100
AcDbSpline
210
0.0
220
0.0
230
1.0
 70
     8
 71
     3
 72
    11
 73
     7
 74
     0
 42
0.0000000001
 43
0.0000000001
 40
6.0
 40
6.0
 40
6.0
 40
6.0
 40
7.0
 40
7.0
 40
7.0
 40
8.0
 40
8.0
 40
8.0
 40
8.0
 10
-93.9345840956504
 20
179.6528291496552
 30
0.0
 10
-93.93596370377972
 20
179.6683497411103
 30
0.0
 10
-93.93665350784443
 20
179.6824907244361
 30
0.0
 10
-93.93665350784443
 20
179.6973215118265
 30
0.0
 10
-93.93665350784443
 20
179.9735880397284
 30
0.0
 10
-93.71212228479317
 20
180.1981192627796
 30
0.0
 10
-93.43585575689141
 20
180.1981192627796
 30
0.0
  0
SPLINE
  5
B2F
102
{ACAD_REACTORS
330
B34
102
}
330
A
100
AcDbEntity
  8
0
 62
   253
370
    13
100
AcDbSpline
210
0.0
220
0.0
230
1.0
 70
    24
 71
     3
 72
     8
 73
     4
 74
     0
 42
0.0000000001
 43
0.0000000001
 40
8.0
 40
8.0
 40
8.0
 40
8.0
 40
9.0
 40
9.0
 40
9.0
 40
9.0
 10
-93.43585575689141
 20
180.1981192627796
 30
0.0
 10
-93.43585575689141
 20
180.1981192627796
 30
0.0
 10
-91.22434392554788
 20
180.1981192627796
 30
0.0
 10
-91.22434392554788
 20
180.1981192627796
 30
0.0
  0
SPLINE
  5
B30
102
{ACAD_REACTORS
330
B34
102
}
330
A
100
AcDbEntity
  8
0
 62
   253
370
    13
100
AcDbSpline
210
0.0
220
0.0
230
1.0
 70
     8
 71
     3
 72
     8
 73
     4
 74
     0
 42
0.0000000001
 43
0.0000000001
 40
9.0
 40
9.0
 40
9.0
 40
9.0
 40
10.0
 40
10.0
 40
10.0
 40
10.0
 10
-91.22434392554788
 20
180.1981192627796
 30
0.0
 10
-90.94738759358145
 20
180.1981192627796
 30
0.0
 10
-90.72320127256256
 20
179.9735880397284
 30
0.0
 10
-90.72320127256256
 20
179.6973215118265
 30
0.0
  0
SPLINE
  5
B31
102
{ACAD_REACTORS
330
B34
102
}
330
A
100
AcDbEntity
  8
0
 62
   253
370
    13
100
AcDbSpline
210
0.0
220
0.0
230
1.0
 70
    24
 71
     3
 72
     8
 73
     4
 74
     0
 42
0.0000000001
 43
0.0000000001
 40
10.0
 40
10.0
 40
10.0
 40
10.0
 40
11.0
 40
11.0
 40
11.0
 40
11.0
 10
-90.72320127256256
 20
179.6973215118265
 30
0.0
 10
-90.72320127256256
 20
179.6973215118265
 30
0.0
 10
-90.72320127256256
 20
145.6585950384767
 30
0.0
 10
-90.72320127256256
 20
145.6585950384767
 30
0.0
  0
DIMENSION
  5
DA0
330
A
100
AcDbEntity
  8
寸法
370
    13
100
AcDbDimension
  2
*D0
 10
-47.5096280840895
 20
112.3138623320214
 30
0.0
 11
-82.50964384877692
 21
114.3138623320214
 31
0.0
 70
    32
 71
     5
 42
70.0000315293748
  3
ISO-25 1／10
100
AcDbAlignedDimension
 13
-117.5096596134643
 23
127.8130619716106
 33
0.0
 14
-47.5096280840895
 24
127.8149411210168
 34
0.0
100
AcDbRotatedDimension
1001
ACAD
1000
DSTYLE
1002
{
1070
   279
1070
     1
1002
}
  0
DIMENSION
  5
DA1
330
A
100
AcDbEntity
  8
寸法
370
    13
100
AcDbDimension
  2
*D1
 10
-90.72320127256254
 20
243.313862373763
 30
0.0
 11
-82.47320127256255
 21
245.313862373763
 31
0.0
 70
    32
  1
{\fMS UI Gothic|b0|i0|c128|p17;\U+2260}<>
 71
     5
 42
16.5
  3
ISO-25 1／10
100
AcDbAlignedDimension
 13
-74.22320127256255
 23
238.0792838269053
 33
0.0
 14
-90.72320127256254
 24
238.3138623023344
 34
0.0
 50
180.0
100
AcDbRotatedDimension
1001
ACAD
1000
DSTYLE
1002
{
1070
   279
1070
     1
1002
}
  0
DIMENSION
  5
DA2
330
A
100
AcDbEntity
  8
寸法
370
    13
100
AcDbDimension
  2
*D2
 10
-122.5081852451014
 20
127.3138623320213
 30
0.0
 11
-124.5081852451014
 21
159.8138623565769
 31
0.0
 70
    32
 71
     5
 42
65.00000004911107
  3
ISO-25 1／10
100
AcDbAlignedDimension
 13
-107.5180978784663
 23
192.3138623811324
 33
0.0
 14
-117.0091120043092
 24
127.3138623320213
 34
0.0
 50
270.0
100
AcDbRotatedDimension
1001
ACAD
1000
DSTYLE
1002
{
1070
   279
1070
     1
1002
}
  0
LWPOLYLINE
  5
E6A
330
A
100
AcDbEntity
  8
0
  6
Continuous
370
     0
100
AcDbPolyline
 90
        4
 70
     1
 43
0.0
 10
-87.50959641575825
 20
141.3138623737632
 10
-77.50959641575825
 20
141.3138623737632
 10
-77.50959641575825
 20
143.3138623737631
 10
-87.50959641575825
 20
143.3138623737631
  0
SPLINE
  5
E81
102
{ACAD_REACTORS
330
EA0
102
}
330
A
100
AcDbEntity
  8
0
 62
   253
370
    13
100
AcDbSpline
210
0.0
220
0.0
230
1.0
 70
     8
 71
     3
 72
     8
 73
     4
 74
     0
 42
0.0000000001
 43
0.0000000001
 40
0.0
 40
0.0
 40
0.0
 40
0.0
 40
1.0
 40
1.0
 40
1.0
 40
1.0
 10
-69.36917388575901
 20
187.4073076584869
 30
0.0
 10
-69.86065928183894
 20
187.4793921832453
 30
0.0
 10
-70.22522073001892
 20
187.9005175647286
 30
0.0
 10
-70.22522073001892
 20
188.3975213933258
 30
0.0
  0
SPLINE
  5
E82
102
{ACAD_REACTORS
330
EA0
102
}
330
A
100
AcDbEntity
  8
0
 62
   253
370
    13
100
AcDbSpline
210
0.0
220
0.0
230
1.0
 70
     8
 71
     3
 72
     8
 73
     4
 74
     0
 42
0.0000000001
 43
0.0000000001
 40
0.0
 40
0.0
 40
0.0
 40
0.0
 40
1.0
 40
1.0
 40
1.0
 40
1.0
 10
-71.2099160323404
 20
193.765921526648
 30
0.0
 10
-70.95986205889627
 20
193.412741845535
 30
0.0
 10
-70.81914202970285
 20
192.9954103864076
 30
0.0
 10
-70.80431124231239
 20
192.5653175520836
 30
0.0
  0
SPLINE
  5
E83
102
{ACAD_REACTORS
330
EA0
102
}
330
A
100
AcDbEntity
  8
0
 62
   253
370
    13
100
AcDbSpline
210
0.0
220
0.0
230
1.0
 70
     8
 71
     3
 72
     8
 73
     4
 74
     0
 42
0.0000000001
 43
0.0000000001
 40
0.0
 40
0.0
 40
0.0
 40
0.0
 40
1.0
 40
1.0
 40
1.0
 40
1.0
 10
-71.2099160323404
 20
193.765921526648
 30
0.0
 10
-72.28980429558695
 20
194.7230246663825
 30
0.0
 10
-73.27449959790846
 20
195.7825637097212
 30
0.0
 10
-74.1505507600439
 20
196.9290180652085
 30
0.0
  0
SPLINE
  5
E84
102
{ACAD_REACTORS
330
EA0
102
}
330
A
100
AcDbEntity
  8
0
 62
   253
370
    13
100
AcDbSpline
210
0.0
220
0.0
230
1.0
 70
     8
 71
     3
 72
    11
 73
     7
 74
     0
 42
0.0000000001
 43
0.0000000001
 40
0.0
 40
0.0
 40
0.0
 40
0.0
 40
1.0
 40
1.0
 40
1.0
 40
2.0
 40
2.0
 40
2.0
 40
2.0
 10
-70.22522073001892
 20
191.3729912262953
 30
0.0
 10
-70.22522073001892
 20
191.9251793800665
 30
0.0
 10
-69.77650318594871
 20
192.3745867282014
 30
0.0
 10
-69.22362522811287
 20
192.3745867282014
 30
0.0
 10
-69.16844090293901
 20
192.3745867282014
 30
0.0
 10
-69.11256677370045
 20
192.3694131977163
 30
0.0
 10
-69.05841715462355
 20
192.3597559408108
 30
0.0
  0
SPLINE
  5
E85
102
{ACAD_REACTORS
330
EA0
102
}
330
A
100
AcDbEntity
  8
0
 62
   253
370
    13
100
AcDbSpline
210
0.0
220
0.0
230
1.0
 70
     8
 71
     3
 72
     8
 73
     4
 74
     0
 42
0.0000000001
 43
0.0000000001
 40
0.0
 40
0.0
 40
0.0
 40
0.0
 40
1.0
 40
1.0
 40
1.0
 40
1.0
 10
-74.1505507600439
 20
196.9290180652085
 30
0.0
 10
-74.19987175066802
 20
197.0800851553722
 30
0.0
 10
-74.11778506697189
 20
197.2432238166675
 30
0.0
 10
-73.96671797680835
 20
197.2921999052592
 30
0.0
  0
SPLINE
  5
E86
102
{ACAD_REACTORS
330
EA0
102
}
330
A
100
AcDbEntity
  8
0
 62
   253
370
    13
100
AcDbSpline
210
0.0
220
0.0
230
1.0
 70
     8
 71
     3
 72
     8
 73
     4
 74
     0
 42
0.0000000001
 43
0.0000000001
 40
1.0
 40
1.0
 40
1.0
 40
1.0
 40
2.0
 40
2.0
 40
2.0
 40
2.0
 10
-73.96671797680835
 20
197.2921999052592
 30
0.0
 10
-73.9456789528358
 20
197.299097945906
 30
0.0
 10
-73.92360522276627
 20
197.304271476391
 30
0.0
 10
-73.90118659066442
 20
197.3056510845204
 30
0.0
  0
SPLINE
  5
E87
102
{ACAD_REACTORS
330
EA0
102
}
330
A
100
AcDbEntity
  8
0
 62
   253
370
    13
100
AcDbSpline
210
0.0
220
0.0
230
1.0
 70
     8
 71
     3
 72
     8
 73
     4
 74
     0
 42
0.0000000001
 43
0.0000000001
 40
0.0
 40
0.0
 40
0.0
 40
0.0
 40
1.0
 40
1.0
 40
1.0
 40
1.0
 10
-57.33450727143145
 20
192.9598854770769
 30
0.0
 10
-63.20577456790061
 20
192.2876714160524
 30
0.0
 10
-69.1170505001208
 20
193.8373162473416
 30
0.0
 10
-73.90118659066442
 20
197.3056510845204
 30
0.0
  0
LINE
  5
E88
102
{ACAD_REACTORS
330
EA0
102
}
330
A
100
AcDbEntity
  8
0
 62
   253
370
    13
100
AcDbLine
 10
-71.22612642786027
 20
187.1134511269359
 30
0.0
 11
-70.80431124231236
 21
192.5653175520835
 31
0.0
  0
LINE
  5
E89
102
{ACAD_REACTORS
330
EA0
102
}
330
A
100
AcDbEntity
  8
0
 62
   253
370
    13
100
AcDbLine
 10
-70.22522073001892
 20
188.3975213933258
 30
0.0
 11
-70.22522073001892
 21
191.3729912262953
 31
0.0
  0
SPLINE
  5
E8A
102
{ACAD_REACTORS
330
EA0
102
}
330
A
100
AcDbEntity
  8
0
 62
   253
370
    13
100
AcDbSpline
210
0.0
220
0.0
230
1.0
 70
    24
 71
     3
 72
     8
 73
     4
 74
     0
 42
0.0000000001
 43
0.0000000001
 40
1.0
 40
1.0
 40
1.0
 40
1.0
 40
2.0
 40
2.0
 40
2.0
 40
2.0
 10
-57.08100427766393
 20
192.7136254259884
 30
0.0
 10
-57.08100427766393
 20
192.7129356219237
 30
0.0
 10
-57.08100427766393
 20
192.711211111762
 30
0.0
 10
-57.08100427766393
 20
192.7098315036326
 30
0.0
  0
SPLINE
  5
E8B
102
{ACAD_REACTORS
330
EA0
102
}
330
A
100
AcDbEntity
  8
0
 62
   253
370
    13
100
AcDbSpline
210
0.0
220
0.0
230
1.0
 70
     8
 71
     3
 72
     8
 73
     4
 74
     0
 42
0.0000000001
 43
0.0000000001
 40
0.0
 40
0.0
 40
0.0
 40
0.0
 40
1.0
 40
1.0
 40
1.0
 40
1.0
 10
-57.33450727143145
 20
192.9598854770769
 30
0.0
 10
-57.1968913605291
 20
192.9622997913032
 30
0.0
 10
-57.08307368985794
 20
192.8512413368907
 30
0.0
 10
-57.08100427766393
 20
192.7136254259884
 30
0.0
  0
SPLINE
  5
E8C
102
{ACAD_REACTORS
330
EA0
102
}
330
A
100
AcDbEntity
  8
0
 62
   253
370
    13
100
AcDbSpline
210
0.0
220
0.0
230
1.0
 70
     8
 71
     3
 72
     8
 73
     4
 74
     0
 42
0.0000000001
 43
0.0000000001
 40
1.0
 40
1.0
 40
1.0
 40
1.0
 40
2.0
 40
2.0
 40
2.0
 40
2.0
 10
-54.96054658285737
 20
186.7526836011117
 30
0.0
 10
-55.21818840101295
 20
185.9704457917719
 30
0.0
 10
-55.83211401857241
 20
185.35617527218
 30
0.0
 10
-56.61504163197694
 20
185.0974987479274
 30
0.0
  0
SPLINE
  5
E8D
102
{ACAD_REACTORS
330
EA0
102
}
330
A
100
AcDbEntity
  8
0
 62
   253
370
    13
100
AcDbSpline
210
0.0
220
0.0
230
1.0
 70
     8
 71
     3
 72
     8
 73
     4
 74
     0
 42
0.0000000001
 43
0.0000000001
 40
0.0
 40
0.0
 40
0.0
 40
0.0
 40
1.0
 40
1.0
 40
1.0
 40
1.0
 10
-56.61504163197694
 20
190.0364958509902
 30
0.0
 10
-55.25060919205259
 20
189.5870885028554
 30
0.0
 10
-54.51044943065787
 20
188.1157364329067
 30
0.0
 10
-54.96054658285737
 20
186.7526836011117
 30
0.0
  0
SPLINE
  5
E8E
102
{ACAD_REACTORS
330
EA0
102
}
330
A
100
AcDbEntity
  8
0
 62
   253
370
    13
100
AcDbSpline
210
0.0
220
0.0
230
1.0
 70
     8
 71
     3
 72
     8
 73
     4
 74
     0
 42
0.0000000001
 43
0.0000000001
 40
0.0
 40
0.0
 40
0.0
 40
0.0
 40
1.0
 40
1.0
 40
1.0
 40
1.0
 10
-57.08100427766393
 20
192.7136254259884
 30
0.0
 10
-57.08100427766393
 20
192.5763544171184
 30
0.0
 10
-57.19309743817337
 20
192.4642612566089
 30
0.0
 10
-57.33174805517276
 20
192.4642612566089
 30
0.0
  0
SPLINE
  5
E8F
102
{ACAD_REACTORS
330
EA0
102
}
330
A
100
AcDbEntity
  8
0
 62
   253
370
    13
100
AcDbSpline
210
0.0
220
0.0
230
1.0
 70
     8
 71
     3
 72
     8
 73
     4
 74
     0
 42
0.0000000001
 43
0.0000000001
 40
0.0
 40
0.0
 40
0.0
 40
0.0
 40
1.0
 40
1.0
 40
1.0
 40
1.0
 10
-56.07009642088479
 20
188.4089031603929
 30
0.0
 10
-55.7510620409733
 20
187.8932746220495
 30
0.0
 10
-55.7510620409733
 20
187.2420995849976
 30
0.0
 10
-56.07009642088479
 20
186.7264710466541
 30
0.0
  0
SPLINE
  5
E90
102
{ACAD_REACTORS
330
EA0
102
}
330
A
100
AcDbEntity
  8
0
 62
   253
370
    13
100
AcDbSpline
210
0.0
220
0.0
230
1.0
 70
     8
 71
     3
 72
     8
 73
     4
 74
     0
 42
0.0000000001
 43
0.0000000001
 40
0.0
 40
0.0
 40
0.0
 40
0.0
 40
1.0
 40
1.0
 40
1.0
 40
1.0
 10
-58.81724110844732
 20
189.410498662299
 30
0.0
 10
-59.53912106212823
 20
190.2906886488224
 30
0.0
 10
-59.47979791256628
 20
191.573379307083
 30
0.0
 10
-58.6792802955126
 20
192.3835541810421
 30
0.0
  0
SPLINE
  5
E91
102
{ACAD_REACTORS
330
EA0
102
}
330
A
100
AcDbEntity
  8
0
 62
   253
370
    13
100
AcDbSpline
210
0.0
220
0.0
230
1.0
 70
     8
 71
     3
 72
     8
 73
     4
 74
     0
 42
0.0000000001
 43
0.0000000001
 40
0.0
 40
0.0
 40
0.0
 40
0.0
 40
1.0
 40
1.0
 40
1.0
 40
1.0
 10
-69.05841715462355
 20
192.3597559408108
 30
0.0
 10
-67.0028010418963
 20
192.2204155197468
 30
0.0
 10
-64.9782261120794
 20
191.7841144488407
 30
0.0
 10
-63.04746453505803
 20
191.0649937114185
 30
0.0
  0
SPLINE
  5
E92
102
{ACAD_REACTORS
330
EA0
102
}
330
A
100
AcDbEntity
  8
0
 62
   253
370
    13
100
AcDbSpline
210
0.0
220
0.0
230
1.0
 70
     8
 71
     3
 72
     8
 73
     4
 74
     0
 42
0.0000000001
 43
0.0000000001
 40
0.0
 40
0.0
 40
0.0
 40
0.0
 40
1.0
 40
1.0
 40
1.0
 40
1.0
 10
-63.04746453505803
 20
191.0649937114185
 30
0.0
 10
-62.65565582632342
 20
190.9242736822251
 30
0.0
 10
-62.32696418950647
 20
190.646627546194
 30
0.0
 10
-62.12140257823375
 20
190.2844804122404
 30
0.0
  0
SPLINE
  5
E93
102
{ACAD_REACTORS
330
EA0
102
}
330
A
100
AcDbEntity
  8
0
 62
   253
370
    13
100
AcDbSpline
210
0.0
220
0.0
230
1.0
 70
     8
 71
     3
 72
     8
 73
     4
 74
     0
 42
0.0000000001
 43
0.0000000001
 40
0.0
 40
0.0
 40
0.0
 40
0.0
 40
1.0
 40
1.0
 40
1.0
 40
1.0
 10
-58.81724110844732
 20
185.7248755447481
 30
0.0
 10
-62.83293547094453
 20
185.6555502362484
 30
0.0
 10
-66.84725022531239
 20
185.9549252003167
 30
0.0
 10
-70.80879496873274
 20
186.6205861227268
 30
0.0
  0
SPLINE
  5
E94
102
{ACAD_REACTORS
330
EA0
102
}
330
A
100
AcDbEntity
  8
0
 62
   253
370
    13
100
AcDbSpline
210
0.0
220
0.0
230
1.0
 70
     8
 71
     3
 72
     8
 73
     4
 74
     0
 42
0.0000000001
 43
0.0000000001
 40
0.0
 40
0.0
 40
0.0
 40
0.0
 40
1.0
 40
1.0
 40
1.0
 40
1.0
 10
-70.80879496873274
 20
186.6205861227268
 30
0.0
 10
-71.04953658730384
 20
186.6605947584778
 30
0.0
 10
-71.22612642786027
 20
186.8692604880416
 30
0.0
 10
-71.22612642786027
 20
187.113451126936
 30
0.0
  0
SPLINE
  5
E95
102
{ACAD_REACTORS
330
EA0
102
}
330
A
100
AcDbEntity
  8
0
 62
   253
370
    13
100
AcDbSpline
210
0.0
220
0.0
230
1.0
 70
     8
 71
     3
 72
     8
 73
     4
 74
     0
 42
0.0000000001
 43
0.0000000001
 40
0.0
 40
0.0
 40
0.0
 40
0.0
 40
1.0
 40
1.0
 40
1.0
 40
1.0
 10
-62.86742567417824
 20
186.7830349799573
 30
0.0
 10
-65.04410240025563
 20
186.8802973530763
 30
0.0
 10
-67.21319128162176
 20
187.0893079846724
 30
0.0
 10
-69.36917388575901
 20
187.4073076584869
 30
0.0
  0
SPLINE
  5
E96
102
{ACAD_REACTORS
330
EA0
102
}
330
A
100
AcDbEntity
  8
0
 62
   253
370
    13
100
AcDbSpline
210
0.0
220
0.0
230
1.0
 70
     8
 71
     3
 72
    11
 73
     7
 74
     0
 42
0.0000000001
 43
0.0000000001
 40
0.0
 40
0.0
 40
0.0
 40
0.0
 40
1.0
 40
1.0
 40
1.0
 40
2.0
 40
2.0
 40
2.0
 40
2.0
 10
-61.82064800603606
 20
187.783250873734
 30
0.0
 10
-61.82064800603606
 20
187.2293382098011
 30
0.0
 10
-62.26902064807387
 20
186.7809655677633
 30
0.0
 10
-62.82155370387741
 20
186.7809655677633
 30
0.0
 10
-62.83707429533257
 20
186.7809655677633
 30
0.0
 10
-62.85190508272307
 20
186.781655371828
 30
0.0
 10
-62.86742567417824
 20
186.7830349799573
 30
0.0
  0
LINE
  5
E97
102
{ACAD_REACTORS
330
EA0
102
}
330
A
100
AcDbEntity
  8
0
 62
   253
370
    13
100
AcDbLine
 10
-58.81724110844729
 20
189.410498662299
 30
0.0
 11
-56.61504163197694
 21
189.410498662299
 31
0.0
  0
LINE
  5
E98
102
{ACAD_REACTORS
330
EA0
102
}
330
A
100
AcDbEntity
  8
0
 62
   253
370
    13
100
AcDbLine
 10
-58.81724110844729
 20
188.4089031603929
 30
0.0
 11
-56.07009642088477
 21
188.4089031603929
 31
0.0
  0
LINE
  5
E99
102
{ACAD_REACTORS
330
EA0
102
}
330
A
100
AcDbEntity
  8
0
 62
   253
370
    13
100
AcDbLine
 10
-56.61504163197694
 20
185.7248755447481
 30
0.0
 11
-58.81724110844729
 21
185.7248755447481
 31
0.0
  0
LINE
  5
E9A
102
{ACAD_REACTORS
330
EA0
102
}
330
A
100
AcDbEntity
  8
0
 62
   253
370
    13
100
AcDbLine
 10
-56.07009642088477
 20
186.7264710466541
 30
0.0
 11
-58.81724110844729
 21
186.7264710466541
 31
0.0
  0
LINE
  5
E9B
102
{ACAD_REACTORS
330
EA0
102
}
330
A
100
AcDbEntity
  8
0
 62
   253
370
    13
100
AcDbLine
 10
-56.61504163197694
 20
190.0364958509903
 30
0.0
 11
-56.61504163197694
 21
189.410498662299
 31
0.0
  0
LINE
  5
E9C
102
{ACAD_REACTORS
330
EA0
102
}
330
A
100
AcDbEntity
  8
0
 62
   253
370
    13
100
AcDbLine
 10
-56.61504163197694
 20
185.7248755447481
 30
0.0
 11
-56.61504163197694
 21
185.0974987479274
 31
0.0
  0
LINE
  5
E9D
102
{ACAD_REACTORS
330
EA0
102
}
330
A
100
AcDbEntity
  8
0
 62
   253
370
    13
100
AcDbLine
 10
-58.81724110844729
 20
186.7264710466541
 30
0.0
 11
-58.81724110844729
 21
188.4089031603929
 31
0.0
  0
LINE
  5
E9E
102
{ACAD_REACTORS
330
EA0
102
}
330
A
100
AcDbEntity
  8
0
 62
   253
370
    13
100
AcDbLine
 10
-62.12140257823373
 20
190.2844804122404
 30
0.0
 11
-61.82064800603606
 21
187.783250873734
 31
0.0
  0
LINE
  5
E9F
102
{ACAD_REACTORS
330
EA0
102
}
330
A
100
AcDbEntity
  8
0
 62
   253
370
    13
100
AcDbLine
 10
-58.6792802955126
 20
192.3835541810421
 30
0.0
 11
-57.33174805517271
 21
192.4642612566089
 31
0.0
  0
LWPOLYLINE
  5
EAF
102
{ACAD_REACTORS
330
ED1
102
}
330
A
100
AcDbEntity
  8
0
 62
     4
370
    13
100
AcDbPolyline
 90
        6
 70
     0
 43
0.0
 10
-90.72320127256254
 20
243.313862373763
 10
-90.72320127256258
 20
144.313862373763
 10
-89.72320127256258
 20
143.313862373763
 10
-83.72320127256257
 20
143.313862373763
 10
-82.72320127256257
 20
144.313862373763
 10
-82.72320127256255
 20
243.313862373763
  0
LWPOLYLINE
  5
ECF
102
{ACAD_REACTORS
330
ED1
102
}
330
A
100
AcDbEntity
  8
0
 62
     4
370
    13
100
AcDbPolyline
 90
        6
 70
     0
 43
0.0
 10
-82.22320127256255
 20
243.313862373763
 10
-82.22320127256258
 20
144.313862373763
 10
-81.22320127256257
 20
143.313862373763
 10
-75.22320127256257
 20
143.313862373763
 10
-74.22320127256258
 20
144.313862373763
 10
-74.22320127256255
 20
243.313862373763
  0
LWPOLYLINE
  5
ED0
102
{ACAD_REACTORS
330
ED1
102
}
330
A
100
AcDbEntity
  8
0
 62
     4
370
    13
100
AcDbPolyline
 90
        6
 70
     0
 43
0.0
 10
-90.72320127256254
 20
243.313862373763
 10
-90.72320127256258
 20
144.313862373763
 10
-89.72320127256258
 20
143.313862373763
 10
-75.22320127256257
 20
143.313862373763
 10
-74.22320127256258
 20
144.313862373763
 10
-74.22320127256255
 20
243.313862373763
  0
LWPOLYLINE
  5
F8E
330
A
100
AcDbEntity
  8
0
370
    13
100
AcDbPolyline
 90
        4
 70
     1
 43
0.0
 10
-87.00964384877208
 20
128.3147680298627
 10
-78.00964384877208
 20
128.3147680298627
 10
-78.00964384877208
 20
130.8180669805631
 10
-87.00964384877208
 20
130.8180669805631
  0
LWPOLYLINE
  5
F8F
330
A
100
AcDbEntity
  8
0
370
    13
100
AcDbPolyline
 90
        5
 70
     0
 43
0.0
 10
-72.50959641575825
 20
138.1405168332965
 10
-72.50959641575825
 20
138.1405168332965
 10
-72.50959641575825
 20
141.3138623737632
 10
-92.50959641575825
 20
141.3138623737632
 10
-92.50959641575825
 20
139.349014328736
  0
DIMENSION
  5
FB7
330
A
100
AcDbEntity
  8
寸法
370
    13
100
AcDbDimension
  2
*D3
 10
-78.00964384877208
 20
122.3138623320213
 30
0.0
 11
-82.50964384877208
 21
124.3138623320213
 31
0.0
 70
    32
  1
%%c<>
 71
     5
 42
9.0
  3
ISO-25 1／10
100
AcDbAlignedDimension
 13
-87.00964384877208
 23
128.3147680298627
 33
0.0
 14
-78.00964384877208
 24
128.3147680298627
 34
0.0
100
AcDbRotatedDimension
1001
ACAD
1000
DSTYLE
1002
{
1070
   279
1070
     1
1002
}
  0
DIMENSION
  5
FDF
330
A
100
AcDbEntity
  8
寸法
370
    13
100
AcDbDimension
  2
*D4
 10
-72.50959641575825
 20
117.3138623320214
 30
0.0
 11
-82.50959641575825
 21
119.3138623320214
 31
0.0
 70
    32
  1
%%c<>
 71
     5
 42
20.0
  3
ISO-25 1／10
100
AcDbAlignedDimension
 13
-92.50959641575825
 23
139.349014328736
 33
0.0
 14
-72.50959641575825
 24
138.1405168332965
 34
0.0
100
AcDbRotatedDimension
1001
ACAD
1000
DSTYLE
1002
{
1070
   279
1070
     1
1002
}
  0
MTEXT
  5
1037
330
A
100
AcDbEntity
  8
文字
370
    13
100
AcDbMText
 10
-103.4912259998403
 20
91.29209437049487
 30
0.0
 40
5.0
 41
0.0
 71
     5
 72
     1
  1
{\fMS UI Gothic|b0|i0|c128|p17;B1785}
 73
     1
 44
1.0
  0
ENDSEC
  0
SECTION
  2
OBJECTS
  0
DICTIONARY
  5
19
330
0
100
AcDbDictionary
281
     1
  3
ACAD_GROUP
350
1A
  3
ACAD_IMAGE_VARS
350
508
  3
ACAD_LAYOUT
350
1E
  3
ACAD_MLINESTYLE
350
1B
  3
ACAD_PLOTSETTINGS
350
22
  3
ACAD_PLOTSTYLENAME
350
1F
  3
ACAD_WIPEOUT_VARS
350
23
  0
DICTIONARY
  5
B3A
330
2
100
AcDbDictionary
280
     1
281
     1
  3
ACAD_LAYERFILTERS
360
B3B
  0
DICTIONARY
  5
1A
102
{ACAD_REACTORS
330
19
102
}
330
19
100
AcDbDictionary
281
     1
  3
*A1
350
B0C
  3
*A2
350
B25
  3
*A3
350
B26
  3
*A4
350
B34
  3
*A5
350
EA0
  3
*A6
350
ED1
  0
RASTERVARIABLES
  5
508
102
{ACAD_REACTORS
330
19
102
}
330
19
100
AcDbRasterVariables
 90
        0
 70
     1
 71
     1
 72
     0
  0
DICTIONARY
  5
1E
102
{ACAD_REACTORS
330
19
102
}
330
19
100
AcDbDictionary
281
     1
  3
Layout1
350
21
  3
Model
350
20
  0
DICTIONARY
  5
1B
102
{ACAD_REACTORS
330
19
102
}
330
19
100
AcDbDictionary
281
     1
  3
Standard
350
1C
  0
DICTIONARY
  5
22
102
{ACAD_REACTORS
330
19
102
}
330
19
100
AcDbDictionary
281
     1
  0
ACDBDICTIONARYWDFLT
  5
1F
102
{ACAD_REACTORS
330
19
102
}
330
19
100
AcDbDictionary
281
     1
  3
Normal
350
1D
100
AcDbDictionaryWithDefault
340
1D
  0
ACAD_PROXY_OBJECT
  5
23
330
19
100
AcDbProxyObject
 90
      499
 91
      521
 95
   393239
 70
     0
 93
       10
310
4040
 94
        0
  0
DICTIONARY
  5
B3B
102
{ACAD_REACTORS
330
B3A
102
}
330
B3A
100
AcDbDictionary
280
     1
281
     1
  3
-100
360
B3C
  3
-50
360
B3D
  3
-ben
360
B3E
  3
-H
360
B3F
  3
-T
360
B40
  3
$
360
B41
  3
$0$
360
B42
  3
0
360
B43
  3
0-
360
B44
  3
00
360
B45
  3
01
360
B46
  3
01KUTAI
360
B47
  3
01全体計画平面図
360
B48
  3
02現況平面図
360
B49
  3
03撤去平面図
360
B4A
  3
04造成平面図
360
B4B
  3
05
360
B4C
  3
05施設平面図
360
B4D
  3
06
360
B4E
  3
06siki
360
B4F
  3
06siki2
360
B50
  3
06排水平面図
360
B51
  3
07
360
B52
  3
07給水平面図
360
B53
  3
0割付平面図
360
B54
  3
0潅水平面
360
B55
  3
0計画平面
360
B56
  3
0高木植栽
360
B57
  3
0施設平面
360
B58
  3
0床内
360
B59
  3
0床壁
360
B5A
  3
0照明配置図
360
B5B
  3
0詳細図
360
B5C
  3
0植栽基盤
360
B5D
  3
0全体工区区分図
360
B5E
  3
0総合図off
360
B5F
  3
0総合図枠
360
B60
  3
0低木
360
B61
  3
0排水平面
360
B62
  3
0平詳枠
360
B63
  3
0擁壁平面図
360
B64
  3
1
360
B65
  3
10
360
B66
  3
100
360
B67
  3
10植栽平面図
360
B68
  3
11
360
B69
  3
1111
360
B6A
  3
11寸法図
360
B6B
  3
12
360
B6C
  3
19
360
B6D
  3
１Ｆ床伏OFF
360
B6E
  3
1階
360
B6F
  3
1床
360
B70
  3
1芯
360
B71
  3
1芯線
360
B72
  3
20
360
B73
  3
21
360
B74
  3
250
360
B75
  3
2fmiage
360
B76
  3
2躯体
360
B77
  3
2断面
360
B78
  3
2壁
360
B79
  3
300
360
B7A
  3
32
360
B7B
  3
333
360
B7C
  3
37
360
B7D
  3
3D
360
B7E
  3
3開口
360
B7F
  3
3見掛り
360
B80
  3
3天井内
360
B81
  3
41
360
B82
  3
4仕上げ
360
B83
  3
4天井
360
B84
  3
5
360
B85
  3
50
360
B86
  3
50off
360
B87
  3
51-52
360
B88
  3
555
360
B89
  3
5寸法
360
B8A
  3
5文字
360
B8B
  3
6
360
B8C
  3
66-躯体図
360
B8D
  3
66躯体図
360
B8E
  3
6記号
360
B8F
  3
6文字
360
B90
  3
6保留
360
B91
  3
767
360
B92
  3
767SE13-0...$
360
B93
  3
767SE13-07-99$0$
360
B94
  3
7記号
360
B95
  3
8
360
B96
  3
8寸法
360
B97
  3
8設備
360
B98
  3
9文字
360
B99
  3
9目地
360
B9A
  3
A
360
B9B
  3
A-
360
B9C
  3
A(枠･表)を表示
360
B9D
  3
A01
360
B9E
  3
A1.DEMO-KEY NOTE
360
B9F
  3
A2. CONS-KEY NOTE
360
BA0
  3
A21
360
BA1
  3
A3
360
BA2
  3
A3. RCP-LAYER
360
BA3
  3
A3D. RCP_DEMO-KEY NOTE
360
BA4
  3
A4. P&T- KEY NOTE
360
BA5
  3
A4D. EL_DEMO-KEY NOTE
360
BA6
  3
A5. FINISH-KEY NOTE
360
BA7
  3
A6. FURN-KEY NOTE
360
BA8
  3
aa
360
BA9
  3
aaa
360
BAA
  3
AB棟
360
BAB
  3
ＡＢ棟
360
BAC
  3
ACTIVE
360
BAD
  3
ACTIVE2
360
BAE
  3
ALC
360
BAF
  3
ALL
360
BB0
  3
all選択
360
BB1
  3
AMENAGEMENT
360
BB2
  3
AQ
360
BB3
  3
ARBOL
360
BB4
  3
AREA
360
BB5
  3
AREA-SG
360
BB6
  3
AS1
360
BB7
  3
aハッチング
360
BB8
  3
A空調
360
BB9
  3
B
360
BBA
  3
B(基準)を表示
360
BBB
  3
B2
360
BBC
  3
B3
360
BBD
  3
BAL
360
BBE
  3
baru
360
BBF
  3
baru2
360
BC0
  3
BASE
360
BC1
  3
bb
360
BC2
  3
bbbb
360
BC3
  3
beam
360
BC4
  3
blocchi
360
BC5
  3
blue
360
BC6
  3
BSM
360
BC7
  3
b階段
360
BC8
  3
B電気
360
BC9
  3
c
360
BCA
  3
c-block
360
BCB
  3
c-block-2
360
BCC
  3
C(寸･文･記)を表示
360
BCD
  3
cajetin
360
BCE
  3
cc
360
BCF
  3
CD06
360
BD0
  3
ＣＤ棟
360
BD1
  3
ceiling
360
BD2
  3
CEILINGS XREF
360
BD3
  3
CEL
360
BD4
  3
che
360
BD5
  3
chika
360
BD6
  3
CLG
360
BD7
  3
COL
360
BD8
  3
cold beam
360
BD9
  3
colu
360
BDA
  3
com
360
BDB
  3
con
360
BDC
  3
CRG
360
BDD
  3
cyan
360
BDE
  3
C衛生
360
BDF
  3
C街区関連
360
BE0
  3
c雑金物
360
BE1
  3
C打計画図
360
BE2
  3
D
360
BE3
  3
D(表現補助)を表示
360
BE4
  3
Ｄ・墓地　施設平面
360
BE5
  3
D16
360
BE6
  3
DASHED
360
BE7
  3
DASHED2
360
BE8
  3
DEMO
360
BE9
  3
DEMOLITION
360
BEA
  3
detail
360
BEB
  3
details
360
BEC
  3
DHED
360
BED
  3
Dim
360
BEE
  3
disegno
360
BEF
  3
DOORS
360
BF0
  3
DR
360
BF1
  3
DT
360
BF2
  3
d外構
360
BF3
  3
Ｄ街区低木
360
BF4
  3
D割付平面
360
BF5
  3
Ｄ給水設備
360
BF6
  3
Ｄ計画高平面
360
BF7
  3
Ｄ計画平面
360
BF8
  3
Ｄ工事区分
360
BF9
  3
Ｄ高木植栽
360
BFA
  3
Ｄ施設平面
360
BFB
  3
Ｄ照明設備
360
BFC
  3
Ｄ低木
360
BFD
  3
Ｄ電気設備
360
BFE
  3
Ｄ土壌改良
360
BFF
  3
Ｄ排水平面
360
C00
  3
D舗装平面
360
C01
  3
Ｄ墓地施設平面
360
C02
  3
D墓地排水
360
C03
  3
E
360
C04
  3
E(点線系)を表示
360
C05
  3
EEEE
360
C06
  3
EISEI
360
C07
  3
elec
360
C08
  3
ERAS1F
360
C09
  3
existing
360
C0A
  3
Exit
360
C0B
  3
F
360
C0C
  3
F(断面)を表示
360
C0D
  3
F1
360
C0E
  3
face4
360
C0F
  3
FC_CLADDING
360
C10
  3
FENCE
360
C11
  3
FF
360
C12
  3
FH
360
C13
  3
FILTER1
360
C14
  3
fini
360
C15
  3
finish
360
C16
  3
FIRE
360
C17
  3
fixture
360
C18
  3
fl
360
C19
  3
Floor
360
C1A
  3
FLOOR PLAN
360
C1B
  3
fr
360
C1C
  3
freeze
360
C1D
  3
FRZ
360
C1E
  3
Fugou
360
C1F
  3
FUGOU-TATEGU
360
C20
  3
FUKI
360
C21
  3
FURN
360
C22
  3
FURNITURE
360
C23
  3
FUSE_00
360
C24
  3
G
360
C25
  3
G(開口)を表示
360
C26
  3
GAIKOU
360
C27
  3
gel
360
C28
  3
gen
360
C29
  3
gondora
360
C2A
  3
green
360
C2B
  3
GRID
360
C2C
  3
gris
360
C2D
  3
H
360
C2E
  3
H-
360
C2F
  3
H-SIN
360
C30
  3
H(見掛)を表示
360
C31
  3
HA
360
C32
  3
haikin
360
C33
  3
HAISEN
360
C34
  3
HARI
360
C35
  3
hasira
360
C36
  3
HATCH
360
C37
  3
HCP
360
C38
  3
HEISHO
360
C39
  3
HEISHO2
360
C3A
  3
HIDDEN
360
C3B
  3
HOJO
360
C3C
  3
hollywood
360
C3D
  3
HOTEL
360
C3E
  3
huse
360
C3F
  3
HYOKI
360
C40
  3
HYOUKI
360
C41
  3
i
360
C42
  3
I(二次部材系))を表示
360
C43
  3
I2
360
C44
  3
i2cl
360
C45
  3
i5
360
C46
  3
i9
360
C47
  3
in
360
C48
  3
INSERT図
360
C49
  3
ISSUE
360
C4A
  3
J
360
C4B
  3
K
360
C4C
  3
KABE
360
C4D
  3
KABESHIN
360
C4E
  3
KAGU
360
C4F
  3
key
360
C50
  3
KI
360
C51
  3
KIGO
360
C52
  3
KIJUN
360
C53
  3
kiso
360
C54
  3
KSIN
360
C55
  3
kui
360
C56
  3
KUTAI
360
C57
  3
L
360
C58
  3
LEGEND
360
C59
  3
LGS
360
C5A
  3
light
360
C5B
  3
LIST
360
C5C
  3
lixo
360
C5D
  3
LOCK
360
C5E
  3
LTA
360
C5F
  3
Ｌ建具
360
C60
  3
M
360
C61
  3
MA
360
C62
  3
MACONNERIE
360
C63
  3
magenta
360
C64
  3
magenta-bleu
360
C65
  3
maji
360
C66
  3
MAJIKIRI
360
C67
  3
marco
360
C68
  3
MB
360
C69
  3
meji
360
C6A
  3
merceologico
360
C6B
  3
MILL
360
C6C
  3
MILLWORK
360
C6D
  3
miwa
360
C6E
  3
MOJI
360
C6F
  3
MOJI100
360
C70
  3
N
360
C71
  3
N-
360
C72
  3
NAM
360
C73
  3
NEW
360
C74
  3
NHK
360
C75
  3
no xref
360
C76
  3
note
360
C77
  3
NUM
360
C78
  3
NUMB
360
C79
  3
O
360
C7A
  3
OF
360
C7B
  3
OFF
360
C7C
  3
on
360
C7D
  3
option 1
360
C7E
  3
option 2
360
C7F
  3
OUTLINE
360
C80
  3
P
360
C81
  3
pa
360
C82
  3
PALFOND
360
C83
  3
PAT
360
C84
  3
PC
360
C85
  3
PISO
360
C86
  3
PLAN
360
C87
  3
PLMB
360
C88
  3
plot
360
C89
  3
PLUMB
360
C8A
  3
PNL
360
C8B
  3
power
360
C8C
  3
PRT
360
C8D
  3
q
360
C8E
  3
R
360
C8F
  3
rack
360
C90
  3
RC
360
C91
  3
RCP
360
C92
  3
rm
360
C93
  3
RMTAGS
360
C94
  3
RNUM
360
C95
  3
ROOM
360
C96
  3
roomno
360
C97
  3
rouge
360
C98
  3
rtkl
360
C99
  3
S
360
C9A
  3
saciencewold
360
C9B
  3
SETUBI
360
C9C
  3
SHITU
360
C9D
  3
SHITUMEI
360
C9E
  3
SIAG
360
C9F
  3
SIAG-N
360
CA0
  3
SIAG3
360
CA1
  3
sin
360
CA2
  3
Sinm
360
CA3
  3
SITA
360
CA4
  3
siyah
360
CA5
  3
SS
360
CA6
  3
ST
360
CA7
  3
STA
360
CA8
  3
stairs
360
CA9
  3
SUGA5
360
CAA
  3
SUNP
360
CAB
  3
SUNP100
360
CAC
  3
T
360
CAD
  3
TAKASA
360
CAE
  3
TATE161
360
CAF
  3
TATEGU
360
CB0
  3
ten
360
CB1
  3
TENJYOU
360
CB2
  3
TENJYOUNAI
360
CB3
  3
test
360
CB4
  3
text
360
CB5
  3
thaw
360
CB6
  3
TITL
360
CB7
  3
tnjyou
360
CB8
  3
tori
360
CB9
  3
TORISHIN
360
CBA
  3
tr
360
CBB
  3
TSIN
360
CBC
  3
TXT
360
CBD
  3
UNFREEZ
360
CBE
  3
UNROCK
360
CBF
  3
wada
360
CC0
  3
waku
360
CC1
  3
X
360
CC2
  3
X(敷地)を表示
360
CC3
  3
xref
360
CC4
  3
YAJI
360
CC5
  3
yellow
360
CC6
  3
YUKA
360
CC7
  3
yその他
360
CC8
  3
Z
360
CC9
  3
ZATU
360
CCA
  3
z図枠
360
CCB
  3
к
360
CCC
  3
перегородки
360
CCD
  3
イベント給水
360
CCE
  3
ガラス
360
CCF
  3
キ-プラン
360
CD0
  3
キープラン
360
CD1
  3
さーくる
360
CD2
  3
シェルター
360
CD3
  3
すべてに反映
360
CD4
  3
スロープ
360
CD5
  3
タイル割付平面図
360
CD6
  3
ﾃｷｽﾄのみ表示
360
CD7
  3
ハッチング
360
CD8
  3
フリーズ
360
CD9
  3
フリーズof
360
CDA
  3
ﾌﾘｰｽﾞ画層非表示
360
CDB
  3
ﾌﾘｰｽﾞ画面非表示
360
CDC
  3
ﾌﾘｰｽﾞ解除
360
CDD
  3
フリーズ解除
360
CDE
  3
ﾌﾟﾚｾﾞﾝ枠
360
CDF
  3
マーク
360
CE0
  3
ﾒｲﾝﾌﾟﾗｻﾞ
360
CE1
  3
レベル
360
CE2
  3
ロック
360
CE3
  3
一括非表示
360
CE4
  3
一般図
360
CE5
  3
印刷
360
CE6
  3
荏原機器
360
CE7
  3
荏原機器基礎
360
CE8
  3
衛生設備図
360
CE9
  3
黄色
360
CEA
  3
下階
360
CEB
  3
下地
360
CEC
  3
外構
360
CED
  3
外部参照－建築
360
CEE
  3
外部参照除く
360
CEF
  3
割り付け平面図
360
CF0
  3
割付平面図
360
CF1
  3
潅水平面
360
CF2
  3
基
360
CF3
  3
基準
360
CF4
  3
基準階
360
CF5
  3
基礎OFF
360
CF6
  3
基礎伏
360
CF7
  3
基礎伏図
360
CF8
  3
基盤改良平面図
360
CF9
  3
既存杭
360
CFA
  3
機器
360
CFB
  3
機器基礎
360
CFC
  3
記号
360
CFD
  3
給水設備平面図
360
CFE
  3
給水平面
360
CFF
  3
区画
360
D00
  3
躯体
360
D01
  3
躯体図
360
D02
  3
空調jv
360
D03
  3
空調設備図
360
D04
  3
郡川
360
D05
  3
型枠計画図
360
D06
  3
計画高平面図
360
D07
  3
計画平面
360
D08
  3
計画平面図
360
D09
  3
劇場ﾌﾟﾗｻﾞ
360
D0A
  3
劇場棟
360
D0B
  3
建具
360
D0C
  3
建築接地図
360
D0D
  3
見上げ
360
D0E
  3
現在非表示画層
360
D0F
  3
光天井
360
D10
  3
公園
360
D11
  3
工事区分図
360
D12
  3
工事区分図AB
360
D13
  3
工事区分図CD
360
D14
  3
高さ
360
D15
  3
高木植栽平面
360
D16
  3
高木平面図
360
D17
  3
座席のみ
360
D18
  3
作業
360
D19
  3
参考
360
D1A
  3
山止根切計画図
360
D1B
  3
仕
360
D1C
  3
仕上
360
D1D
  3
仕上図
360
D1E
  3
使用中
360
D1F
  3
施設配置図
360
D20
  3
施設平面
360
D21
  3
施設平面図
360
D22
  3
紫
360
D23
  3
床伏図
360
D24
  3
昇降機
360
D25
  3
照明
360
D26
  3
照明Ｃ１
360
D27
  3
照明Ｃ２
360
D28
  3
照明配置図
360
D29
  3
詳細
360
D2A
  3
詳細図
360
D2B
  3
上階躯体図
360
D2C
  3
植栽
360
D2D
  3
植栽基盤平面
360
D2E
  3
植栽現況
360
D2F
  3
植栽高木AB
360
D30
  3
植栽高木CD
360
D31
  3
植栽低木AB
360
D32
  3
植栽低木ＣＤ
360
D33
  3
色番号8
360
D34
  3
申請用
360
D35
  3
芯
360
D36
  3
芯関係
360
D37
  3
水
360
D38
  3
水色
360
D39
  3
寸法
360
D3A
  3
製作
360
D3B
  3
製作-躯体
360
D3C
  3
製作-建築
360
D3D
  3
製作-昇降機
360
D3E
  3
青
360
D3F
  3
設備
360
D40
  3
設備プロット
360
D41
  3
全階平面図
360
D42
  3
総合仮設図
360
D43
  3
総合図
360
D44
  3
足場計画図
360
D45
  3
地下埋設
360
D46
  3
中野
360
D47
  3
低木植栽平面
360
D48
  3
低木平面図
360
D49
  3
鉄骨
360
D4A
  3
鉄骨建方計画図
360
D4B
  3
天井インサート図
360
D4C
  3
天井総合図
360
D4D
  3
天井伏図
360
D4E
  3
天伏
360
D4F
  3
電気設備図
360
D50
  3
土壌改良
360
D51
  3
土木計画平面図
360
D52
  3
道路
360
D53
  3
道路関係図
360
D54
  3
排水
360
D55
  3
排水設備平面図
360
D56
  3
排水平面
360
D57
  3
配管
360
D58
  3
非表示
360
D59
  3
非表示ﾚｲﾔｰ
360
D5A
  3
表示
360
D5B
  3
表示・非表示
360
D5C
  3
表示2
360
D5D
  3
分割枠
360
D5E
  3
平面詳細図
360
D5F
  3
平面図
360
D60
  3
平面総合図
360
D61
  3
変更分
360
D62
  3
舗装平面
360
D63
  3
舗装平面C1
360
D64
  3
舗装平面C2
360
D65
  3
舗装平面図
360
D66
  3
法規チェック－区画
360
D67
  3
法規チェック－範囲
360
D68
  3
鳳文字入力
360
D69
  3
防災
360
D6A
  3
名称
360
D6B
  3
面積
360
D6C
  3
擁壁平面図
360
D6D
  3
用途色塗
360
D6E
  3
立面図
360
D6F
  3
梁
360
D70
  3
緑
360
D71
  0
GROUP
  5
B0C
102
{ACAD_REACTORS
330
1A
102
}
330
1A
100
AcDbGroup
300

 70
     1
 71
     1
340
AF5
340
AF4
340
AF3
340
AF2
340
AF1
340
AF0
340
AE9
340
AE8
340
AE7
340
AE6
340
AE5
340
AE4
340
AE3
340
AE2
340
AE1
340
AE0
340
ADF
340
ADE
340
ADD
340
ADC
340
B08
340
B07
340
AFF
340
AFE
340
B00
340
AF9
340
AF7
340
B09
340
B01
340
B0B
340
B0A
  0
GROUP
  5
B25
102
{ACAD_REACTORS
330
1A
102
}
330
1A
100
AcDbGroup
300

 70
     1
 71
     1
340
B1B
340
B1A
340
B19
340
B17
340
B18
340
B16
340
B15
  0
GROUP
  5
B26
102
{ACAD_REACTORS
330
1A
102
}
330
1A
100
AcDbGroup
300

 70
     1
 71
     1
340
B14
340
B0F
340
B0E
340
B13
340
B12
340
B11
340
B10
  0
GROUP
  5
B34
102
{ACAD_REACTORS
330
1A
102
}
330
1A
100
AcDbGroup
300

 70
     1
 71
     1
340
B31
340
B2D
340
B2C
340
B2B
340
B2A
340
B29
340
B28
340
B30
340
B2F
340
B2E
  0
GROUP
  5
EA0
102
{ACAD_REACTORS
330
1A
102
}
330
1A
100
AcDbGroup
300

 70
     1
 71
     1
340
E86
340
E85
340
E8A
340
E8B
340
E8C
340
E8D
340
E8E
340
E8F
340
E90
340
E87
340
E91
340
E84
340
E83
340
E82
340
E92
340
E93
340
E94
340
E95
340
E81
340
E96
340
E97
340
E98
340
E99
340
E9A
340
E9B
340
E9C
340
E9D
340
E9E
340
E9F
340
E89
340
E88
  0
GROUP
  5
ED1
102
{ACAD_REACTORS
330
1A
102
}
330
1A
100
AcDbGroup
300

 70
     1
 71
     1
340
ED0
340
ECF
340
EAF
  0
LAYOUT
  5
21
102
{ACAD_REACTORS
330
1E
102
}
330
1E
100
AcDbPlotSettings
  1

  2

  4

  6

 40
0.0
 41
0.0
 42
0.0
 43
0.0
 44
0.0
 45
0.0
 46
0.0
 47
0.0
 48
0.0
 49
0.0
140
0.0
141
0.0
142
1.0
143
1.0
 70
     0
 72
     0
 73
     0
 74
     0
  7

 75
     0
147
1.0
148
0.0
149
0.0
100
AcDbLayout
  1
Layout1
 70
     0
 71
     1
 10
0.0
 20
0.0
 11
12.0
 21
9.0
 12
0.0
 22
0.0
 32
0.0
 14
1.000000000000000E+20
 24
1.000000000000000E+20
 34
1.000000000000000E+20
 15
-1.000000000000000E+20
 25
-1.000000000000000E+20
 35
-1.000000000000000E+20
146
0.0
 13
0.0
 23
0.0
 33
0.0
 16
1.0
 26
0.0
 36
0.0
 17
0.0
 27
1.0
 37
0.0
 76
     0
330
B
  0
LAYOUT
  5
20
102
{ACAD_REACTORS
330
1E
102
}
330
1E
100
AcDbPlotSettings
  1

  2

  4

  6

 40
0.0
 41
0.0
 42
0.0
 43
0.0
 44
0.0
 45
0.0
 46
0.0
 47
0.0
 48
0.0
 49
0.0
140
0.0
141
0.0
142
1.0
143
1.0
 70
  1024
 72
     0
 73
     0
 74
     0
  7

 75
     0
147
1.0
148
0.0
149
0.0
100
AcDbLayout
  1
Model
 70
     0
 71
     0
 10
0.0
 20
0.0
 11
0.0
 21
0.0
 12
0.0
 22
0.0
 32
0.0
 14
0.0
 24
0.0
 34
0.0
 15
0.0
 25
0.0
 35
0.0
146
0.0
 13
0.0
 23
0.0
 33
0.0
 16
0.0
 26
0.0
 36
0.0
 17
0.0
 27
0.0
 37
0.0
 76
     0
330
A
  0
MLINESTYLE
  5
1C
102
{ACAD_REACTORS
330
1B
102
}
330
1B
100
AcDbMlineStyle
  2
STANDARD
 70
     0
  3

 62
     0
 51
90.0
 52
90.0
 71
     2
 49
0.5
 62
   256
  6
BYLAYER
 49
-0.5
 62
   256
  6
BYLAYER
  0
ACDBPLACEHOLDER
  5
1D
102
{ACAD_REACTORS
330
1F
102
}
330
1F
  0
XRECORD
  5
B3C
102
{ACAD_REACTORS
330
B3B
102
}
330
B3B
100
AcDbXrecord
280
     1
  1
-100
  1
*-100
  1
*
  1
*
 70
     0
  1
*
  1
*
  0
XRECORD
  5
B3D
102
{ACAD_REACTORS
330
B3B
102
}
330
B3B
100
AcDbXrecord
280
     1
  1
-50
  1
*-50
  1
*
  1
*
 70
     0
  1
*
  1
*
  0
XRECORD
  5
B3E
102
{ACAD_REACTORS
330
B3B
102
}
330
B3B
100
AcDbXrecord
280
     1
  1
-ben
  1
ben*
  1
*
  1
*
 70
     0
  1
*
  1
*
  0
XRECORD
  5
B3F
102
{ACAD_REACTORS
330
B3B
102
}
330
B3B
100
AcDbXrecord
280
     1
  1
-H
  1
00*,01*,02*,05*,1*,2*,3*,4*,5*,6*,8*
  1
*
  1
*
 70
     0
  1
*
  1
*
  0
XRECORD
  5
B40
102
{ACAD_REACTORS
330
B3B
102
}
330
B3B
100
AcDbXrecord
280
     1
  1
-T
  1
00*,01*,03*,05*,1*,20*,21*,22*,23*,24*,25*,26*,27*,29*,2a*,3*,4*,7*,9*
  1
*
  1
*
 70
     0
  1
*
  1
*
  0
XRECORD
  5
B41
102
{ACAD_REACTORS
330
B3B
102
}
330
B3B
100
AcDbXrecord
280
     1
  1
$
  1
*$0$*
  1
*
  1
*
 70
     0
  1
*
  1
*
  0
XRECORD
  5
B42
102
{ACAD_REACTORS
330
B3B
102
}
330
B3B
100
AcDbXrecord
280
     1
  1
$0$
  1
$0$*
  1
*
  1
*
 70
     0
  1
*
  1
*
  0
XRECORD
  5
B43
102
{ACAD_REACTORS
330
B3B
102
}
330
B3B
100
AcDbXrecord
280
     1
  1
0
  1
0*
  1
*
  1
*
 70
     0
  1
*
  1
*
  0
XRECORD
  5
B44
102
{ACAD_REACTORS
330
B3B
102
}
330
B3B
100
AcDbXrecord
280
     1
  1
0-
  1
0-*
  1
*
  1
*
 70
     0
  1
*
  1
*
  0
XRECORD
  5
B45
102
{ACAD_REACTORS
330
B3B
102
}
330
B3B
100
AcDbXrecord
280
     1
  1
00
  1
*-100
  1
*
  1
*
 70
     0
  1
*
  1
*
  0
XRECORD
  5
B46
102
{ACAD_REACTORS
330
B3B
102
}
330
B3B
100
AcDbXrecord
280
     1
  1
01
  1
0*a*
  1
*
  1
*
 70
     0
  1
*
  1
*
  0
XRECORD
  5
B47
102
{ACAD_REACTORS
330
B3B
102
}
330
B3B
100
AcDbXrecord
280
     1
  1
01KUTAI
  1
01KUTAI
  1
*
  1
*
 70
     0
  1
*
  1
*
  0
XRECORD
  5
B48
102
{ACAD_REACTORS
330
B3B
102
}
330
B3B
100
AcDbXrecord
280
     1
  1
01全体計画平面図
  1
00*,02*,0A*
  1
*
  1
*
 70
     0
  1
*
  1
*
  0
XRECORD
  5
B49
102
{ACAD_REACTORS
330
B3B
102
}
330
B3B
100
AcDbXrecord
280
     1
  1
02現況平面図
  1
00*,01*,0B*
  1
*
  1
*
 70
     0
  1
*
  1
*
  0
XRECORD
  5
B4A
102
{ACAD_REACTORS
330
B3B
102
}
330
B3B
100
AcDbXrecord
280
     1
  1
03撤去平面図
  1
00*,01*,0C*
  1
*
  1
*
 70
     0
  1
*
  1
*
  0
XRECORD
  5
B4B
102
{ACAD_REACTORS
330
B3B
102
}
330
B3B
100
AcDbXrecord
280
     1
  1
04造成平面図
  1
00*,02計*,0D*,03*,01*
  1
*
  1
*
 70
     0
  1
*
  1
*
  0
XRECORD
  5
B4C
102
{ACAD_REACTORS
330
B3B
102
}
330
B3B
100
AcDbXrecord
280
     1
  1
05
  1
*05*
  1
*
  1
*
 70
     0
  1
*
  1
*
  0
XRECORD
  5
B4D
102
{ACAD_REACTORS
330
B3B
102
}
330
B3B
100
AcDbXrecord
280
     1
  1
05施設平面図
  1
00*,02*,0E*,05*
  1
*
  1
*
 70
     0
  1
*
  1
*
  0
XRECORD
  5
B4E
102
{ACAD_REACTORS
330
B3B
102
}
330
B3B
100
AcDbXrecord
280
     1
  1
06
  1
06*
  1
*
  1
*
 70
     0
  1
*
  1
*
  0
XRECORD
  5
B4F
102
{ACAD_REACTORS
330
B3B
102
}
330
B3B
100
AcDbXrecord
280
     1
  1
06siki
  1
06*siki*,sikiti,00waku,*|*
  1
*
  1
*
 70
     0
  1
*
  1
*
  0
XRECORD
  5
B50
102
{ACAD_REACTORS
330
B3B
102
}
330
B3B
100
AcDbXrecord
280
     1
  1
06siki2
  1
06*siki*,sikiti,00waku,*|*
  1
*
  1
*
 70
     0
  1
*
  1
*
  0
XRECORD
  5
B51
102
{ACAD_REACTORS
330
B3B
102
}
330
B3B
100
AcDbXrecord
280
     1
  1
06排水平面図
  1
00*,02*,0F*
  1
*
  1
*
 70
     0
  1
*
  1
*
  0
XRECORD
  5
B52
102
{ACAD_REACTORS
330
B3B
102
}
330
B3B
100
AcDbXrecord
280
     1
  1
07
  1
07*
  1
*
  1
*
 70
     0
  1
*
  1
*
  0
XRECORD
  5
B53
102
{ACAD_REACTORS
330
B3B
102
}
330
B3B
100
AcDbXrecord
280
     1
  1
07給水平面図
  1
00*,02*,0G*
  1
*
  1
*
 70
     0
  1
*
  1
*
  0
XRECORD
  5
B54
102
{ACAD_REACTORS
330
B3B
102
}
330
B3B
100
AcDbXrecord
280
     1
  1
0割付平面図
  1
*わ*
  1
*
  1
*
 70
     0
  1
*
  1
*
  0
XRECORD
  5
B55
102
{ACAD_REACTORS
330
B3B
102
}
330
B3B
100
AcDbXrecord
280
     1
  1
0潅水平面
  1
*三*
  1
*
  1
*
 70
     0
  1
*
  1
*
  0
XRECORD
  5
B56
102
{ACAD_REACTORS
330
B3B
102
}
330
B3B
100
AcDbXrecord
280
     1
  1
0計画平面
  1
*け*
  1
*
  1
*
 70
     0
  1
*
  1
*
  0
XRECORD
  5
B57
102
{ACAD_REACTORS
330
B3B
102
}
330
B3B
100
AcDbXrecord
280
     1
  1
0高木植栽
  1
*こ*
  1
*
  1
*
 70
     0
  1
*
  1
*
  0
XRECORD
  5
B58
102
{ACAD_REACTORS
330
B3B
102
}
330
B3B
100
AcDbXrecord
280
     1
  1
0施設平面
  1
*し*
  1
*
  1
*
 70
     0
  1
*
  1
*
  0
XRECORD
  5
B59
102
{ACAD_REACTORS
330
B3B
102
}
330
B3B
100
AcDbXrecord
280
     1
  1
0床内
  1
FI-*
  1
*
  1
*
 70
     0
  1
*
  1
*
  0
XRECORD
  5
B5A
102
{ACAD_REACTORS
330
B3B
102
}
330
B3B
100
AcDbXrecord
280
     1
  1
0床壁
  1
FW*
  1
*
  1
*
 70
     0
  1
*
  1
*
  0
XRECORD
  5
B5B
102
{ACAD_REACTORS
330
B3B
102
}
330
B3B
100
AcDbXrecord
280
     1
  1
0照明配置図
  1
*め*
  1
*
  1
*
 70
     0
  1
*
  1
*
  0
XRECORD
  5
B5C
102
{ACAD_REACTORS
330
B3B
102
}
330
B3B
100
AcDbXrecord
280
     1
  1
0詳細図
  1
*-d
  1
*
  1
*
 70
     0
  1
*
  1
*
  0
XRECORD
  5
B5D
102
{ACAD_REACTORS
330
B3B
102
}
330
B3B
100
AcDbXrecord
280
     1
  1
0植栽基盤
  1
*ど*
  1
*
  1
*
 70
     0
  1
*
  1
*
  0
XRECORD
  5
B5E
102
{ACAD_REACTORS
330
B3B
102
}
330
B3B
100
AcDbXrecord
280
     1
  1
0全体工区区分図
  1
*ぜ*
  1
*
  1
*
 70
     0
  1
*
  1
*
  0
XRECORD
  5
B5F
102
{ACAD_REACTORS
330
B3B
102
}
330
B3B
100
AcDbXrecord
280
     1
  1
0総合図off
  1
*-s
  1
*
  1
*
 70
     0
  1
*
  1
*
  0
XRECORD
  5
B60
102
{ACAD_REACTORS
330
B3B
102
}
330
B3B
100
AcDbXrecord
280
     1
  1
0総合図枠
  1
*-2
  1
*
  1
*
 70
     0
  1
*
  1
*
  0
XRECORD
  5
B61
102
{ACAD_REACTORS
330
B3B
102
}
330
B3B
100
AcDbXrecord
280
     1
  1
0低木
  1
*て*
  1
*
  1
*
 70
     0
  1
*
  1
*
  0
XRECORD
  5
B62
102
{ACAD_REACTORS
330
B3B
102
}
330
B3B
100
AcDbXrecord
280
     1
  1
0排水平面
  1
*は*
  1
*
  1
*
 70
     0
  1
*
  1
*
  0
XRECORD
  5
B63
102
{ACAD_REACTORS
330
B3B
102
}
330
B3B
100
AcDbXrecord
280
     1
  1
0平詳枠
  1
*-1
  1
*
  1
*
 70
     0
  1
*
  1
*
  0
XRECORD
  5
B64
102
{ACAD_REACTORS
330
B3B
102
}
330
B3B
100
AcDbXrecord
280
     1
  1
0擁壁平面図
  1
*よ*
  1
*
  1
*
 70
     0
  1
*
  1
*
  0
XRECORD
  5
B65
102
{ACAD_REACTORS
330
B3B
102
}
330
B3B
100
AcDbXrecord
280
     1
  1
1
  1
*
  1
*
  1
*
 70
     0
  1
*
  1
*
  0
XRECORD
  5
B66
102
{ACAD_REACTORS
330
B3B
102
}
330
B3B
100
AcDbXrecord
280
     1
  1
10
  1
*
  1
10
  1
*
 70
     0
  1
*
  1
*
  0
XRECORD
  5
B67
102
{ACAD_REACTORS
330
B3B
102
}
330
B3B
100
AcDbXrecord
280
     1
  1
100
  1
50*
  1
*
  1
*
 70
     0
  1
*
  1
*
  0
XRECORD
  5
B68
102
{ACAD_REACTORS
330
B3B
102
}
330
B3B
100
AcDbXrecord
280
     1
  1
10植栽平面図
  1
00*,02*,0I*
  1
*
  1
*
 70
     0
  1
*
  1
*
  0
XRECORD
  5
B69
102
{ACAD_REACTORS
330
B3B
102
}
330
B3B
100
AcDbXrecord
280
     1
  1
11
  1
11*
  1
*
  1
*
 70
     0
  1
*
  1
*
  0
XRECORD
  5
B6A
102
{ACAD_REACTORS
330
B3B
102
}
330
B3B
100
AcDbXrecord
280
     1
  1
1111
  1
*-50
  1
*
  1
*
 70
     0
  1
*
  1
*
  0
XRECORD
  5
B6B
102
{ACAD_REACTORS
330
B3B
102
}
330
B3B
100
AcDbXrecord
280
     1
  1
11寸法図
  1
00*,02*,0K*,03*
  1
*
  1
*
 70
     0
  1
*
  1
*
  0
XRECORD
  5
B6C
102
{ACAD_REACTORS
330
B3B
102
}
330
B3B
100
AcDbXrecord
280
     1
  1
12
  1
*
  1
*12
  1
*
 70
     0
  1
*
  1
*
  0
XRECORD
  5
B6D
102
{ACAD_REACTORS
330
B3B
102
}
330
B3B
100
AcDbXrecord
280
     1
  1
19
  1
*19*
  1
*
  1
*
 70
     0
  1
*
  1
*
  0
XRECORD
  5
B6E
102
{ACAD_REACTORS
330
B3B
102
}
330
B3B
100
AcDbXrecord
280
     1
  1
１Ｆ床伏OFF
  1
-*
  1
*
  1
*
 70
     0
  1
*
  1
*
  0
XRECORD
  5
B6F
102
{ACAD_REACTORS
330
B3B
102
}
330
B3B
100
AcDbXrecord
280
     1
  1
1階
  1
*1階*
  1
*
  1
*
 70
     0
  1
*
  1
*
  0
XRECORD
  5
B70
102
{ACAD_REACTORS
330
B3B
102
}
330
B3B
100
AcDbXrecord
280
     1
  1
1床
  1
F-*
  1
*
  1
*
 70
     0
  1
*
  1
*
  0
XRECORD
  5
B71
102
{ACAD_REACTORS
330
B3B
102
}
330
B3B
100
AcDbXrecord
280
     1
  1
1芯
  1
1*
  1
*
  1
*
 70
     0
  1
*
  1
*
  0
XRECORD
  5
B72
102
{ACAD_REACTORS
330
B3B
102
}
330
B3B
100
AcDbXrecord
280
     1
  1
1芯線
  1
1*
  1
*
  1
*
 70
     0
  1
*
  1
*
  0
XRECORD
  5
B73
102
{ACAD_REACTORS
330
B3B
102
}
330
B3B
100
AcDbXrecord
280
     1
  1
20
  1
*20
  1
*
  1
*
 70
     0
  1
*
  1
*
  0
XRECORD
  5
B74
102
{ACAD_REACTORS
330
B3B
102
}
330
B3B
100
AcDbXrecord
280
     1
  1
21
  1
*
  1
21
  1
*
 70
     0
  1
*
  1
*
  0
XRECORD
  5
B75
102
{ACAD_REACTORS
330
B3B
102
}
330
B3B
100
AcDbXrecord
280
     1
  1
250
  1
*250*
  1
*
  1
*
 70
     0
  1
*
  1
*
  0
XRECORD
  5
B76
102
{ACAD_REACTORS
330
B3B
102
}
330
B3B
100
AcDbXrecord
280
     1
  1
2fmiage
  1
*
  1
*
  1
*
 70
     1
  1
*
  1
*
  0
XRECORD
  5
B77
102
{ACAD_REACTORS
330
B3B
102
}
330
B3B
100
AcDbXrecord
280
     1
  1
2躯体
  1
2*
  1
*
  1
*
 70
     0
  1
*
  1
*
  0
XRECORD
  5
B78
102
{ACAD_REACTORS
330
B3B
102
}
330
B3B
100
AcDbXrecord
280
     1
  1
2断面
  1
2*
  1
*
  1
*
 70
     0
  1
*
  1
*
  0
XRECORD
  5
B79
102
{ACAD_REACTORS
330
B3B
102
}
330
B3B
100
AcDbXrecord
280
     1
  1
2壁
  1
W-*
  1
*
  1
*
 70
     0
  1
*
  1
*
  0
XRECORD
  5
B7A
102
{ACAD_REACTORS
330
B3B
102
}
330
B3B
100
AcDbXrecord
280
     1
  1
300
  1
*300*
  1
*
  1
*
 70
     0
  1
*
  1
*
  0
XRECORD
  5
B7B
102
{ACAD_REACTORS
330
B3B
102
}
330
B3B
100
AcDbXrecord
280
     1
  1
32
  1
*
  1
32
  1
*
 70
     0
  1
*
  1
*
  0
XRECORD
  5
B7C
102
{ACAD_REACTORS
330
B3B
102
}
330
B3B
100
AcDbXrecord
280
     1
  1
333
  1
*
  1
*
  1
*
 70
    12
  1
*
  1
*
  0
XRECORD
  5
B7D
102
{ACAD_REACTORS
330
B3B
102
}
330
B3B
100
AcDbXrecord
280
     1
  1
37
  1
*37
  1
*
  1
*
 70
     0
  1
*
  1
*
  0
XRECORD
  5
B7E
102
{ACAD_REACTORS
330
B3B
102
}
330
B3B
100
AcDbXrecord
280
     1
  1
3D
  1
3D*
  1
*
  1
*
 70
     0
  1
*
  1
*
  0
XRECORD
  5
B7F
102
{ACAD_REACTORS
330
B3B
102
}
330
B3B
100
AcDbXrecord
280
     1
  1
3開口
  1
3*
  1
*
  1
*
 70
     0
  1
*
  1
*
  0
XRECORD
  5
B80
102
{ACAD_REACTORS
330
B3B
102
}
330
B3B
100
AcDbXrecord
280
     1
  1
3見掛り
  1
3*
  1
*
  1
*
 70
     0
  1
*
  1
*
  0
XRECORD
  5
B81
102
{ACAD_REACTORS
330
B3B
102
}
330
B3B
100
AcDbXrecord
280
     1
  1
3天井内
  1
CI-*
  1
*
  1
*
 70
     0
  1
*
  1
*
  0
XRECORD
  5
B82
102
{ACAD_REACTORS
330
B3B
102
}
330
B3B
100
AcDbXrecord
280
     1
  1
41
  1
41
  1
*
  1
*
 70
     1
  1
*
  1
*
  0
XRECORD
  5
B83
102
{ACAD_REACTORS
330
B3B
102
}
330
B3B
100
AcDbXrecord
280
     1
  1
4仕上げ
  1
4*
  1
*
  1
*
 70
     0
  1
*
  1
*
  0
XRECORD
  5
B84
102
{ACAD_REACTORS
330
B3B
102
}
330
B3B
100
AcDbXrecord
280
     1
  1
4天井
  1
C-*
  1
*
  1
*
 70
     0
  1
*
  1
*
  0
XRECORD
  5
B85
102
{ACAD_REACTORS
330
B3B
102
}
330
B3B
100
AcDbXrecord
280
     1
  1
5
  1
*5
  1
*
  1
*
 70
     1
  1
*
  1
*
  0
XRECORD
  5
B86
102
{ACAD_REACTORS
330
B3B
102
}
330
B3B
100
AcDbXrecord
280
     1
  1
50
  1
*-50
  1
*
  1
*
 70
     0
  1
*
  1
*
  0
XRECORD
  5
B87
102
{ACAD_REACTORS
330
B3B
102
}
330
B3B
100
AcDbXrecord
280
     1
  1
50off
  1
50*
  1
*
  1
*
 70
     0
  1
*
  1
*
  0
XRECORD
  5
B88
102
{ACAD_REACTORS
330
B3B
102
}
330
B3B
100
AcDbXrecord
280
     1
  1
51-52
  1
5*
  1
*
  1
*
 70
     0
  1
*
  1
*
  0
XRECORD
  5
B89
102
{ACAD_REACTORS
330
B3B
102
}
330
B3B
100
AcDbXrecord
280
     1
  1
555
  1
*
  1
*
  1
*
 70
     1
  1
*
  1
*
  0
XRECORD
  5
B8A
102
{ACAD_REACTORS
330
B3B
102
}
330
B3B
100
AcDbXrecord
280
     1
  1
5寸法
  1
5*
  1
*
  1
*
 70
     0
  1
*
  1
*
  0
XRECORD
  5
B8B
102
{ACAD_REACTORS
330
B3B
102
}
330
B3B
100
AcDbXrecord
280
     1
  1
5文字
  1
*TXT*
  1
*
  1
*
 70
     0
  1
*
  1
*
  0
XRECORD
  5
B8C
102
{ACAD_REACTORS
330
B3B
102
}
330
B3B
100
AcDbXrecord
280
     1
  1
6
  1
*
  1
6
  1
*
 70
     0
  1
*
  1
*
  0
XRECORD
  5
B8D
102
{ACAD_REACTORS
330
B3B
102
}
330
B3B
100
AcDbXrecord
280
     1
  1
66-躯体図
  1
0,Defpoints,HOJO,雲マーク,000*,010*,020*,1*,400*,470*,520*,570*,08*
  1
*
  1
*
 70
     0
  1
*
  1
*
  0
XRECORD
  5
B8E
102
{ACAD_REACTORS
330
B3B
102
}
330
B3B
100
AcDbXrecord
280
     1
  1
66躯体図
  1
0,Defpoints,HOJO,雲マーク,000*,010*,020*,1*,400*,470*,520*,570*,08*,6*
  1
*
  1
*
 70
     0
  1
*
  1
*
  0
XRECORD
  5
B8F
102
{ACAD_REACTORS
330
B3B
102
}
330
B3B
100
AcDbXrecord
280
     1
  1
6記号
  1
6*
  1
*
  1
*
 70
     0
  1
*
  1
*
  0
XRECORD
  5
B90
102
{ACAD_REACTORS
330
B3B
102
}
330
B3B
100
AcDbXrecord
280
     1
  1
6文字
  1
6*
  1
*
  1
*
 70
     0
  1
*
  1
*
  0
XRECORD
  5
B91
102
{ACAD_REACTORS
330
B3B
102
}
330
B3B
100
AcDbXrecord
280
     1
  1
6保留
  1
*_a
  1
*
  1
*
 70
     0
  1
*
  1
*
  0
XRECORD
  5
B92
102
{ACAD_REACTORS
330
B3B
102
}
330
B3B
100
AcDbXrecord
280
     1
  1
767
  1
*
  1
*
  1
*
 70
     0
  1
*
  1
*
  0
XRECORD
  5
B93
102
{ACAD_REACTORS
330
B3B
102
}
330
B3B
100
AcDbXrecord
280
     1
  1
767SE13-0...$
  1
*
  1
*
  1
*
 70
     0
  1
*
  1
*
  0
XRECORD
  5
B94
102
{ACAD_REACTORS
330
B3B
102
}
330
B3B
100
AcDbXrecord
280
     1
  1
767SE13-07-99$0$
  1
*
  1
*
  1
*
 70
     0
  1
*
  1
*
  0
XRECORD
  5
B95
102
{ACAD_REACTORS
330
B3B
102
}
330
B3B
100
AcDbXrecord
280
     1
  1
7記号
  1
7*
  1
*
  1
*
 70
     0
  1
*
  1
*
  0
XRECORD
  5
B96
102
{ACAD_REACTORS
330
B3B
102
}
330
B3B
100
AcDbXrecord
280
     1
  1
8
  1
*
  1
8
  1
*
 70
    12
  1
*
  1
*
  0
XRECORD
  5
B97
102
{ACAD_REACTORS
330
B3B
102
}
330
B3B
100
AcDbXrecord
280
     1
  1
8寸法
  1
8*
  1
*
  1
*
 70
     0
  1
*
  1
*
  0
XRECORD
  5
B98
102
{ACAD_REACTORS
330
B3B
102
}
330
B3B
100
AcDbXrecord
280
     1
  1
8設備
  1
8*
  1
*
  1
*
 70
     0
  1
*
  1
*
  0
XRECORD
  5
B99
102
{ACAD_REACTORS
330
B3B
102
}
330
B3B
100
AcDbXrecord
280
     1
  1
9文字
  1
9*
  1
*
  1
*
 70
     0
  1
*
  1
*
  0
XRECORD
  5
B9A
102
{ACAD_REACTORS
330
B3B
102
}
330
B3B
100
AcDbXrecord
280
     1
  1
9目地
  1
9*
  1
*
  1
*
 70
     0
  1
*
  1
*
  0
XRECORD
  5
B9B
102
{ACAD_REACTORS
330
B3B
102
}
330
B3B
100
AcDbXrecord
280
     1
  1
A
  1
A*
  1
*
  1
*
 70
     0
  1
*
  1
*
  0
XRECORD
  5
B9C
102
{ACAD_REACTORS
330
B3B
102
}
330
B3B
100
AcDbXrecord
280
     1
  1
A-
  1
A-*
  1
*
  1
*
 70
     0
  1
*
  1
*
  0
XRECORD
  5
B9D
102
{ACAD_REACTORS
330
B3B
102
}
330
B3B
100
AcDbXrecord
280
     1
  1
A(枠･表)を表示
  1
A*
  1
*
  1
*
 70
     0
  1
*
  1
*
  0
XRECORD
  5
B9E
102
{ACAD_REACTORS
330
B3B
102
}
330
B3B
100
AcDbXrecord
280
     1
  1
A01
  1
*A01*
  1
*
  1
*
 70
     0
  1
*
  1
*
  0
XRECORD
  5
B9F
102
{ACAD_REACTORS
330
B3B
102
}
330
B3B
100
AcDbXrecord
280
     1
  1
A1.DEMO-KEY NOTE
  1
*-D-*
  1
*
  1
*
 70
     0
  1
*
  1
*
  0
XRECORD
  5
BA0
102
{ACAD_REACTORS
330
B3B
102
}
330
B3B
100
AcDbXrecord
280
     1
  1
A2. CONS-KEY NOTE
  1
*-C-*
  1
*
  1
*
 70
     0
  1
*
  1
*
  0
XRECORD
  5
BA1
102
{ACAD_REACTORS
330
B3B
102
}
330
B3B
100
AcDbXrecord
280
     1
  1
A21
  1
*A21*
  1
*
  1
*
 70
     0
  1
*
  1
*
  0
XRECORD
  5
BA2
102
{ACAD_REACTORS
330
B3B
102
}
330
B3B
100
AcDbXrecord
280
     1
  1
A3
  1
*A3
  1
*
  1
*
 70
     0
  1
*
  1
*
  0
XRECORD
  5
BA3
102
{ACAD_REACTORS
330
B3B
102
}
330
B3B
100
AcDbXrecord
280
     1
  1
A3. RCP-LAYER
  1
*R-SCH*
  1
*
  1
*
 70
     0
  1
*
  1
*
  0
XRECORD
  5
BA4
102
{ACAD_REACTORS
330
B3B
102
}
330
B3B
100
AcDbXrecord
280
     1
  1
A3D. RCP_DEMO-KEY NOTE
  1
*-RD-*
  1
*
  1
*
 70
     0
  1
*
  1
*
  0
XRECORD
  5
BA5
102
{ACAD_REACTORS
330
B3B
102
}
330
B3B
100
AcDbXrecord
280
     1
  1
A4. P&T- KEY NOTE
  1
*T-SCH*
  1
*
  1
*
 70
     0
  1
*
  1
*
  0
XRECORD
  5
BA6
102
{ACAD_REACTORS
330
B3B
102
}
330
B3B
100
AcDbXrecord
280
     1
  1
A4D. EL_DEMO-KEY NOTE
  1
*-ED-*
  1
*
  1
*
 70
     0
  1
*
  1
*
  0
XRECORD
  5
BA7
102
{ACAD_REACTORS
330
B3B
102
}
330
B3B
100
AcDbXrecord
280
     1
  1
A5. FINISH-KEY NOTE
  1
*-N-*
  1
*
  1
*
 70
     0
  1
*
  1
*
  0
XRECORD
  5
BA8
102
{ACAD_REACTORS
330
B3B
102
}
330
B3B
100
AcDbXrecord
280
     1
  1
A6. FURN-KEY NOTE
  1
*-F-*
  1
*
  1
*
 70
     0
  1
*
  1
*
  0
XRECORD
  5
BA9
102
{ACAD_REACTORS
330
B3B
102
}
330
B3B
100
AcDbXrecord
280
     1
  1
aa
  1
*aa*
  1
*
  1
*
 70
     0
  1
*
  1
*
  0
XRECORD
  5
BAA
102
{ACAD_REACTORS
330
B3B
102
}
330
B3B
100
AcDbXrecord
280
     1
  1
aaa
  1
*
  1
*
  1
*
 70
     0
  1
*
  1
*
  0
XRECORD
  5
BAB
102
{ACAD_REACTORS
330
B3B
102
}
330
B3B
100
AcDbXrecord
280
     1
  1
AB棟
  1
ＡＢ棟*
  1
*
  1
*
 70
     0
  1
*
  1
*
  0
XRECORD
  5
BAC
102
{ACAD_REACTORS
330
B3B
102
}
330
B3B
100
AcDbXrecord
280
     1
  1
ＡＢ棟
  1
ＡＢ棟*
  1
*
  1
*
 70
     0
  1
*
  1
*
  0
XRECORD
  5
BAD
102
{ACAD_REACTORS
330
B3B
102
}
330
B3B
100
AcDbXrecord
280
     1
  1
ACTIVE
  1
C.*
  1
*
  1
*
 70
     0
  1
*
  1
*
  0
XRECORD
  5
BAE
102
{ACAD_REACTORS
330
B3B
102
}
330
B3B
100
AcDbXrecord
280
     1
  1
ACTIVE2
  1
B-*
  1
*
  1
*
 70
     0
  1
*
  1
*
  0
XRECORD
  5
BAF
102
{ACAD_REACTORS
330
B3B
102
}
330
B3B
100
AcDbXrecord
280
     1
  1
ALC
  1
*ALC
  1
*
  1
*
 70
     0
  1
*
  1
*
  0
XRECORD
  5
BB0
102
{ACAD_REACTORS
330
B3B
102
}
330
B3B
100
AcDbXrecord
280
     1
  1
ALL
  1
*
  1
*
  1
*
 70
     3
  1
*
  1
*
  0
XRECORD
  5
BB1
102
{ACAD_REACTORS
330
B3B
102
}
330
B3B
100
AcDbXrecord
280
     1
  1
all選択
  1
*
  1
*
  1
*
 70
     0
  1
*
  1
*
  0
XRECORD
  5
BB2
102
{ACAD_REACTORS
330
B3B
102
}
330
B3B
100
AcDbXrecord
280
     1
  1
AMENAGEMENT
  1
*
  1
*
  1
*
 70
    13
  1
*
  1
*
  0
XRECORD
  5
BB3
102
{ACAD_REACTORS
330
B3B
102
}
330
B3B
100
AcDbXrecord
280
     1
  1
AQ
  1
AQ*
  1
*
  1
*
 70
     0
  1
*
  1
*
  0
XRECORD
  5
BB4
102
{ACAD_REACTORS
330
B3B
102
}
330
B3B
100
AcDbXrecord
280
     1
  1
ARBOL
  1
*ARBOL*
  1
*
  1
*
 70
     0
  1
*
  1
*
  0
XRECORD
  5
BB5
102
{ACAD_REACTORS
330
B3B
102
}
330
B3B
100
AcDbXrecord
280
     1
  1
AREA
  1
*AREA*
  1
*
  1
*
 70
     0
  1
*
  1
*
  0
XRECORD
  5
BB6
102
{ACAD_REACTORS
330
B3B
102
}
330
B3B
100
AcDbXrecord
280
     1
  1
AREA-SG
  1
*6AREA-SG
  1
6
  1
*
 70
     0
  1
*
  1
*
  0
XRECORD
  5
BB7
102
{ACAD_REACTORS
330
B3B
102
}
330
B3B
100
AcDbXrecord
280
     1
  1
AS1
  1
*AS1
  1
*
  1
*
 70
     0
  1
*
  1
*
  0
XRECORD
  5
BB8
102
{ACAD_REACTORS
330
B3B
102
}
330
B3B
100
AcDbXrecord
280
     1
  1
aハッチング
  1
a*
  1
*
  1
*
 70
     0
  1
*
  1
*
  0
XRECORD
  5
BB9
102
{ACAD_REACTORS
330
B3B
102
}
330
B3B
100
AcDbXrecord
280
     1
  1
A空調
  1
*
  1
*
  1
*
 70
     0
  1
*
  1
KUCYOU
  0
XRECORD
  5
BBA
102
{ACAD_REACTORS
330
B3B
102
}
330
B3B
100
AcDbXrecord
280
     1
  1
B
  1
B*
  1
*
  1
*
 70
     0
  1
*
  1
*
  0
XRECORD
  5
BBB
102
{ACAD_REACTORS
330
B3B
102
}
330
B3B
100
AcDbXrecord
280
     1
  1
B(基準)を表示
  1
B*
  1
*
  1
*
 70
     0
  1
*
  1
*
  0
XRECORD
  5
BBC
102
{ACAD_REACTORS
330
B3B
102
}
330
B3B
100
AcDbXrecord
280
     1
  1
B2
  1
B2*
  1
*
  1
*
 70
     1
  1
*
  1
*
  0
XRECORD
  5
BBD
102
{ACAD_REACTORS
330
B3B
102
}
330
B3B
100
AcDbXrecord
280
     1
  1
B3
  1
B3*
  1
*
  1
*
 70
     0
  1
*
  1
*
  0
XRECORD
  5
BBE
102
{ACAD_REACTORS
330
B3B
102
}
330
B3B
100
AcDbXrecord
280
     1
  1
BAL
  1
*BAL
  1
*
  1
*
 70
     0
  1
*
  1
*
  0
XRECORD
  5
BBF
102
{ACAD_REACTORS
330
B3B
102
}
330
B3B
100
AcDbXrecord
280
     1
  1
baru
  1
*51A
  1
*
  1
*
 70
     0
  1
*
  1
*
  0
XRECORD
  5
BC0
102
{ACAD_REACTORS
330
B3B
102
}
330
B3B
100
AcDbXrecord
280
     1
  1
baru2
  1
*AS1A
  1
*
  1
*
 70
     0
  1
*
  1
*
  0
XRECORD
  5
BC1
102
{ACAD_REACTORS
330
B3B
102
}
330
B3B
100
AcDbXrecord
280
     1
  1
BASE
  1
*I4BASE
  1
*
  1
*
 70
     0
  1
*
  1
*
  0
XRECORD
  5
BC2
102
{ACAD_REACTORS
330
B3B
102
}
330
B3B
100
AcDbXrecord
280
     1
  1
bb
  1
rogarpissu,block
  1
*
  1
*
 70
     0
  1
*
  1
*
  0
XRECORD
  5
BC3
102
{ACAD_REACTORS
330
B3B
102
}
330
B3B
100
AcDbXrecord
280
     1
  1
bbbb
  1
prova
  1
*
  1
*
 70
    55
  1
*
  1
*
  0
XRECORD
  5
BC4
102
{ACAD_REACTORS
330
B3B
102
}
330
B3B
100
AcDbXrecord
280
     1
  1
beam
  1
*beam*
  1
*
  1
*
 70
     0
  1
*
  1
*
  0
XRECORD
  5
BC5
102
{ACAD_REACTORS
330
B3B
102
}
330
B3B
100
AcDbXrecord
280
     1
  1
blocchi
  1
mqa*
  1
*
  1
*
 70
     0
  1
*
  1
*
  0
XRECORD
  5
BC6
102
{ACAD_REACTORS
330
B3B
102
}
330
B3B
100
AcDbXrecord
280
     1
  1
blue
  1
*
  1
blue
  1
*
 70
     0
  1
*
  1
*
  0
XRECORD
  5
BC7
102
{ACAD_REACTORS
330
B3B
102
}
330
B3B
100
AcDbXrecord
280
     1
  1
BSM
  1
*BSM*
  1
*
  1
*
 70
     0
  1
*
  1
*
  0
XRECORD
  5
BC8
102
{ACAD_REACTORS
330
B3B
102
}
330
B3B
100
AcDbXrecord
280
     1
  1
b階段
  1
b*
  1
*
  1
*
 70
     0
  1
*
  1
*
  0
XRECORD
  5
BC9
102
{ACAD_REACTORS
330
B3B
102
}
330
B3B
100
AcDbXrecord
280
     1
  1
B電気
  1
*
  1
*
  1
*
 70
     0
  1
*
  1
DENKI
  0
XRECORD
  5
BCA
102
{ACAD_REACTORS
330
B3B
102
}
330
B3B
100
AcDbXrecord
280
     1
  1
c
  1
c*
  1
*
  1
*
 70
    61
  1
*
  1
*
  0
XRECORD
  5
BCB
102
{ACAD_REACTORS
330
B3B
102
}
330
B3B
100
AcDbXrecord
280
     1
  1
c-block
  1
c-*
  1
*
  1
*
 70
     0
  1
*
  1
*
  0
XRECORD
  5
BCC
102
{ACAD_REACTORS
330
B3B
102
}
330
B3B
100
AcDbXrecord
280
     1
  1
c-block-2
  1
c-*
  1
*
  1
*
 70
  1024
  1
*
  1
*
  0
XRECORD
  5
BCD
102
{ACAD_REACTORS
330
B3B
102
}
330
B3B
100
AcDbXrecord
280
     1
  1
C(寸･文･記)を表示
  1
C*
  1
*
  1
*
 70
     0
  1
*
  1
*
  0
XRECORD
  5
BCE
102
{ACAD_REACTORS
330
B3B
102
}
330
B3B
100
AcDbXrecord
280
     1
  1
cajetin
  1
caj*
  1
*
  1
*
 70
     0
  1
*
  1
*
  0
XRECORD
  5
BCF
102
{ACAD_REACTORS
330
B3B
102
}
330
B3B
100
AcDbXrecord
280
     1
  1
cc
  1
*
  1
*
  1
*
 70
     0
  1
*
  1
*
  0
XRECORD
  5
BD0
102
{ACAD_REACTORS
330
B3B
102
}
330
B3B
100
AcDbXrecord
280
     1
  1
CD06
  1
CD06*
  1
*
  1
*
 70
     0
  1
*
  1
*
  0
XRECORD
  5
BD1
102
{ACAD_REACTORS
330
B3B
102
}
330
B3B
100
AcDbXrecord
280
     1
  1
ＣＤ棟
  1
T15-*
  1
*
  1
*
 70
     0
  1
*
  1
*
  0
XRECORD
  5
BD2
102
{ACAD_REACTORS
330
B3B
102
}
330
B3B
100
AcDbXrecord
280
     1
  1
ceiling
  1
*ceiling*
  1
*
  1
*
 70
     0
  1
*
  1
*
  0
XRECORD
  5
BD3
102
{ACAD_REACTORS
330
B3B
102
}
330
B3B
100
AcDbXrecord
280
     1
  1
CEILINGS XREF
  1
*CE-SUSPENDED-CEILINGS
  1
*
  1
*
 70
     0
  1
*
  1
*
  0
XRECORD
  5
BD4
102
{ACAD_REACTORS
330
B3B
102
}
330
B3B
100
AcDbXrecord
280
     1
  1
CEL
  1
*
  1
*
  1
*
 70
     0
  1
*
  1
*
  0
XRECORD
  5
BD5
102
{ACAD_REACTORS
330
B3B
102
}
330
B3B
100
AcDbXrecord
280
     1
  1
che
  1
che*
  1
*
  1
*
 70
     0
  1
*
  1
*
  0
XRECORD
  5
BD6
102
{ACAD_REACTORS
330
B3B
102
}
330
B3B
100
AcDbXrecord
280
     1
  1
chika
  1
2躯体構造体点線
  1
211
  1
*
 70
     0
  1
*
  1
*
  0
XRECORD
  5
BD7
102
{ACAD_REACTORS
330
B3B
102
}
330
B3B
100
AcDbXrecord
280
     1
  1
CLG
  1
*CLG*
  1
*
  1
*
 70
     0
  1
*
  1
*
  0
XRECORD
  5
BD8
102
{ACAD_REACTORS
330
B3B
102
}
330
B3B
100
AcDbXrecord
280
     1
  1
COL
  1
*COL*
  1
*
  1
*
 70
     0
  1
*
  1
*
  0
XRECORD
  5
BD9
102
{ACAD_REACTORS
330
B3B
102
}
330
B3B
100
AcDbXrecord
280
     1
  1
cold beam
  1
*cold*
  1
*
  1
*
 70
     0
  1
*
  1
*
  0
XRECORD
  5
BDA
102
{ACAD_REACTORS
330
B3B
102
}
330
B3B
100
AcDbXrecord
280
     1
  1
colu
  1
*colu*
  1
*
  1
*
 70
     0
  1
*
  1
*
  0
XRECORD
  5
BDB
102
{ACAD_REACTORS
330
B3B
102
}
330
B3B
100
AcDbXrecord
280
     1
  1
com
  1
com*
  1
*
  1
*
 70
     0
  1
*
  1
*
  0
XRECORD
  5
BDC
102
{ACAD_REACTORS
330
B3B
102
}
330
B3B
100
AcDbXrecord
280
     1
  1
con
  1
c-*
  1
*
  1
*
 70
     0
  1
*
  1
*
  0
XRECORD
  5
BDD
102
{ACAD_REACTORS
330
B3B
102
}
330
B3B
100
AcDbXrecord
280
     1
  1
CRG
  1
tca-6f|*CRG*
  1
*
  1
*
 70
     0
  1
*
  1
*
  0
XRECORD
  5
BDE
102
{ACAD_REACTORS
330
B3B
102
}
330
B3B
100
AcDbXrecord
280
     1
  1
cyan
  1
*
  1
cyan
  1
*
 70
     0
  1
*
  1
*
  0
XRECORD
  5
BDF
102
{ACAD_REACTORS
330
B3B
102
}
330
B3B
100
AcDbXrecord
280
     1
  1
C衛生
  1
*
  1
*
  1
*
 70
     0
  1
*
  1
EISEI
  0
XRECORD
  5
BE0
102
{ACAD_REACTORS
330
B3B
102
}
330
B3B
100
AcDbXrecord
280
     1
  1
C街区関連
  1
*
  1
*
  1
*
 70
  1024
  1
*
  1
*
  0
XRECORD
  5
BE1
102
{ACAD_REACTORS
330
B3B
102
}
330
B3B
100
AcDbXrecord
280
     1
  1
c雑金物
  1
c*
  1
*
  1
*
 70
     0
  1
*
  1
*
  0
XRECORD
  5
BE2
102
{ACAD_REACTORS
330
B3B
102
}
330
B3B
100
AcDbXrecord
280
     1
  1
C打計画図
  1
001*,002*,003*,004*,005*,007*,012*,015*,016*,017*,018*,019*,020*,021*,049*,050*,051*,052*,053*,054*,055*,056*,057*,058*,059*,060*,061*,062*,063*,064*,065*,066*,067*,068*,069*,070*,071*,072*,073*,074*,075*
  1
*
  1
*
 70
     0
  1
*
  1
*
  0
XRECORD
  5
BE3
102
{ACAD_REACTORS
330
B3B
102
}
330
B3B
100
AcDbXrecord
280
     1
  1
D
  1
D*
  1
*
  1
*
 70
     0
  1
*
  1
*
  0
XRECORD
  5
BE4
102
{ACAD_REACTORS
330
B3B
102
}
330
B3B
100
AcDbXrecord
280
     1
  1
D(表現補助)を表示
  1
D*
  1
*
  1
*
 70
     0
  1
*
  1
*
  0
XRECORD
  5
BE5
102
{ACAD_REACTORS
330
B3B
102
}
330
B3B
100
AcDbXrecord
280
     1
  1
Ｄ・墓地　施設平面
  1
*も*
  1
*
  1
*
 70
     0
  1
*
  1
*
  0
XRECORD
  5
BE6
102
{ACAD_REACTORS
330
B3B
102
}
330
B3B
100
AcDbXrecord
280
     1
  1
D16
  1
D16*
  1
*
  1
*
 70
     0
  1
*
  1
*
  0
XRECORD
  5
BE7
102
{ACAD_REACTORS
330
B3B
102
}
330
B3B
100
AcDbXrecord
280
     1
  1
DASHED
  1
*
  1
*
  1
DASHED
 70
     0
  1
*
  1
*
  0
XRECORD
  5
BE8
102
{ACAD_REACTORS
330
B3B
102
}
330
B3B
100
AcDbXrecord
280
     1
  1
DASHED2
  1
*
  1
*
  1
DASHED
 70
     0
  1
*
  1
*
  0
XRECORD
  5
BE9
102
{ACAD_REACTORS
330
B3B
102
}
330
B3B
100
AcDbXrecord
280
     1
  1
DEMO
  1
*DEMO*
  1
*
  1
*
 70
     0
  1
*
  1
*
  0
XRECORD
  5
BEA
102
{ACAD_REACTORS
330
B3B
102
}
330
B3B
100
AcDbXrecord
280
     1
  1
DEMOLITION
  1
*DEMO*
  1
*
  1
*
 70
     0
  1
*
  1
*
  0
XRECORD
  5
BEB
102
{ACAD_REACTORS
330
B3B
102
}
330
B3B
100
AcDbXrecord
280
     1
  1
detail
  1
d*
  1
*
  1
*
 70
     0
  1
*
  1
*
  0
XRECORD
  5
BEC
102
{ACAD_REACTORS
330
B3B
102
}
330
B3B
100
AcDbXrecord
280
     1
  1
details
  1
det-*
  1
*
  1
*
 70
     0
  1
*
  1
*
  0
XRECORD
  5
BED
102
{ACAD_REACTORS
330
B3B
102
}
330
B3B
100
AcDbXrecord
280
     1
  1
DHED
  1
*DHED*
  1
*
  1
*
 70
     0
  1
*
  1
*
  0
XRECORD
  5
BEE
102
{ACAD_REACTORS
330
B3B
102
}
330
B3B
100
AcDbXrecord
280
     1
  1
Dim
  1
*-Dim*
  1
*
  1
*
 70
     0
  1
*
  1
*
  0
XRECORD
  5
BEF
102
{ACAD_REACTORS
330
B3B
102
}
330
B3B
100
AcDbXrecord
280
     1
  1
disegno
  1
ben*
  1
*
  1
*
 70
     0
  1
*
  1
*
  0
XRECORD
  5
BF0
102
{ACAD_REACTORS
330
B3B
102
}
330
B3B
100
AcDbXrecord
280
     1
  1
DOORS
  1
*
  1
*
  1
*
 70
     0
  1
*
  1
*
  0
XRECORD
  5
BF1
102
{ACAD_REACTORS
330
B3B
102
}
330
B3B
100
AcDbXrecord
280
     1
  1
DR
  1
DR*
  1
*
  1
*
 70
     0
  1
*
  1
*
  0
XRECORD
  5
BF2
102
{ACAD_REACTORS
330
B3B
102
}
330
B3B
100
AcDbXrecord
280
     1
  1
DT
  1
DT*
  1
*
  1
*
 70
     0
  1
*
  1
*
  0
XRECORD
  5
BF3
102
{ACAD_REACTORS
330
B3B
102
}
330
B3B
100
AcDbXrecord
280
     1
  1
d外構
  1
d*
  1
*
  1
*
 70
     0
  1
*
  1
*
  0
XRECORD
  5
BF4
102
{ACAD_REACTORS
330
B3B
102
}
330
B3B
100
AcDbXrecord
280
     1
  1
Ｄ街区低木
  1
*て*
  1
*
  1
*
 70
     0
  1
*
  1
*
  0
XRECORD
  5
BF5
102
{ACAD_REACTORS
330
B3B
102
}
330
B3B
100
AcDbXrecord
280
     1
  1
D割付平面
  1
*わ*
  1
*
  1
*
 70
     0
  1
*
  1
*
  0
XRECORD
  5
BF6
102
{ACAD_REACTORS
330
B3B
102
}
330
B3B
100
AcDbXrecord
280
     1
  1
Ｄ給水設備
  1
*ゆ*
  1
*
  1
*
 70
     0
  1
*
  1
*
  0
XRECORD
  5
BF7
102
{ACAD_REACTORS
330
B3B
102
}
330
B3B
100
AcDbXrecord
280
     1
  1
Ｄ計画高平面
  1
*さ*
  1
*
  1
*
 70
     0
  1
*
  1
*
  0
XRECORD
  5
BF8
102
{ACAD_REACTORS
330
B3B
102
}
330
B3B
100
AcDbXrecord
280
     1
  1
Ｄ計画平面
  1
*け*
  1
*
  1
*
 70
     0
  1
*
  1
*
  0
XRECORD
  5
BF9
102
{ACAD_REACTORS
330
B3B
102
}
330
B3B
100
AcDbXrecord
280
     1
  1
Ｄ工事区分
  1
*ぶ*
  1
*
  1
*
 70
     0
  1
*
  1
*
  0
XRECORD
  5
BFA
102
{ACAD_REACTORS
330
B3B
102
}
330
B3B
100
AcDbXrecord
280
     1
  1
Ｄ高木植栽
  1
*こ*
  1
*
  1
*
 70
     0
  1
*
  1
*
  0
XRECORD
  5
BFB
102
{ACAD_REACTORS
330
B3B
102
}
330
B3B
100
AcDbXrecord
280
     1
  1
Ｄ施設平面
  1
*し*
  1
*
  1
*
 70
     0
  1
*
  1
*
  0
XRECORD
  5
BFC
102
{ACAD_REACTORS
330
B3B
102
}
330
B3B
100
AcDbXrecord
280
     1
  1
Ｄ照明設備
  1
*め*
  1
*
  1
*
 70
     0
  1
*
  1
*
  0
XRECORD
  5
BFD
102
{ACAD_REACTORS
330
B3B
102
}
330
B3B
100
AcDbXrecord
280
     1
  1
Ｄ低木
  1
*て*
  1
*
  1
*
 70
     0
  1
*
  1
*
  0
XRECORD
  5
BFE
102
{ACAD_REACTORS
330
B3B
102
}
330
B3B
100
AcDbXrecord
280
     1
  1
Ｄ電気設備
  1
*で*
  1
*
  1
*
 70
     0
  1
*
  1
*
  0
XRECORD
  5
BFF
102
{ACAD_REACTORS
330
B3B
102
}
330
B3B
100
AcDbXrecord
280
     1
  1
Ｄ土壌改良
  1
*ど*
  1
*
  1
*
 70
     0
  1
*
  1
*
  0
XRECORD
  5
C00
102
{ACAD_REACTORS
330
B3B
102
}
330
B3B
100
AcDbXrecord
280
     1
  1
Ｄ排水平面
  1
*は*
  1
*
  1
*
 70
     0
  1
*
  1
*
  0
XRECORD
  5
C01
102
{ACAD_REACTORS
330
B3B
102
}
330
B3B
100
AcDbXrecord
280
     1
  1
D舗装平面
  1
*ほ*
  1
*
  1
*
 70
     0
  1
*
  1
*
  0
XRECORD
  5
C02
102
{ACAD_REACTORS
330
B3B
102
}
330
B3B
100
AcDbXrecord
280
     1
  1
Ｄ墓地施設平面
  1
*も*
  1
*
  1
*
 70
     0
  1
*
  1
*
  0
XRECORD
  5
C03
102
{ACAD_REACTORS
330
B3B
102
}
330
B3B
100
AcDbXrecord
280
     1
  1
D墓地排水
  1
*は*
  1
*
  1
*
 70
     0
  1
*
  1
*
  0
XRECORD
  5
C04
102
{ACAD_REACTORS
330
B3B
102
}
330
B3B
100
AcDbXrecord
280
     1
  1
E
  1
*E-*
  1
*
  1
*
 70
     0
  1
*
  1
*
  0
XRECORD
  5
C05
102
{ACAD_REACTORS
330
B3B
102
}
330
B3B
100
AcDbXrecord
280
     1
  1
E(点線系)を表示
  1
E*
  1
*
  1
*
 70
     0
  1
*
  1
*
  0
XRECORD
  5
C06
102
{ACAD_REACTORS
330
B3B
102
}
330
B3B
100
AcDbXrecord
280
     1
  1
EEEE
  1
*
  1
*
  1
*
 70
  1804
  1
*
  1
*
  0
XRECORD
  5
C07
102
{ACAD_REACTORS
330
B3B
102
}
330
B3B
100
AcDbXrecord
280
     1
  1
EISEI
  1
*4EISEI
  1
4
  1
*
 70
     0
  1
*
  1
*
  0
XRECORD
  5
C08
102
{ACAD_REACTORS
330
B3B
102
}
330
B3B
100
AcDbXrecord
280
     1
  1
elec
  1
01_elec-tgbt
  1
*
  1
*
 70
     0
  1
*
  1
*
  0
XRECORD
  5
C09
102
{ACAD_REACTORS
330
B3B
102
}
330
B3B
100
AcDbXrecord
280
     1
  1
ERAS1F
  1
*2ERAS1F
  1
*
  1
*
 70
     0
  1
*
  1
*
  0
XRECORD
  5
C0A
102
{ACAD_REACTORS
330
B3B
102
}
330
B3B
100
AcDbXrecord
280
     1
  1
existing
  1
afl-* 
  1
*
  1
*
 70
     0
  1
*
  1
*
  0
XRECORD
  5
C0B
102
{ACAD_REACTORS
330
B3B
102
}
330
B3B
100
AcDbXrecord
280
     1
  1
Exit
  1
*exit*
  1
*
  1
*
 70
     0
  1
*
  1
*
  0
XRECORD
  5
C0C
102
{ACAD_REACTORS
330
B3B
102
}
330
B3B
100
AcDbXrecord
280
     1
  1
F
  1
F*
  1
*
  1
*
 70
     0
  1
*
  1
*
  0
XRECORD
  5
C0D
102
{ACAD_REACTORS
330
B3B
102
}
330
B3B
100
AcDbXrecord
280
     1
  1
F(断面)を表示
  1
F*
  1
*
  1
*
 70
     0
  1
*
  1
*
  0
XRECORD
  5
C0E
102
{ACAD_REACTORS
330
B3B
102
}
330
B3B
100
AcDbXrecord
280
     1
  1
F1
  1
*
  1
*
  1
*
 70
     0
  1
*
  1
*
  0
XRECORD
  5
C0F
102
{ACAD_REACTORS
330
B3B
102
}
330
B3B
100
AcDbXrecord
280
     1
  1
face4
  1
*face4*
  1
*
  1
*
 70
     0
  1
*
  1
*
  0
XRECORD
  5
C10
102
{ACAD_REACTORS
330
B3B
102
}
330
B3B
100
AcDbXrecord
280
     1
  1
FC_CLADDING
  1
*FC*
  1
*
  1
*
 70
     0
  1
*
  1
*
  0
XRECORD
  5
C11
102
{ACAD_REACTORS
330
B3B
102
}
330
B3B
100
AcDbXrecord
280
     1
  1
FENCE
  1
*FENCE*
  1
*
  1
*
 70
     0
  1
*
  1
*
  0
XRECORD
  5
C12
102
{ACAD_REACTORS
330
B3B
102
}
330
B3B
100
AcDbXrecord
280
     1
  1
FF
  1
*
  1
*
  1
*
 70
     4
  1
*
  1
*
  0
XRECORD
  5
C13
102
{ACAD_REACTORS
330
B3B
102
}
330
B3B
100
AcDbXrecord
280
     1
  1
FH
  1
*FH*
  1
*
  1
*
 70
     0
  1
*
  1
*
  0
XRECORD
  5
C14
102
{ACAD_REACTORS
330
B3B
102
}
330
B3B
100
AcDbXrecord
280
     1
  1
FILTER1
  1
*
  1
*
  1
*
 70
     0
  1
*
  1
*
  0
XRECORD
  5
C15
102
{ACAD_REACTORS
330
B3B
102
}
330
B3B
100
AcDbXrecord
280
     1
  1
fini
  1
*fini*
  1
*
  1
*
 70
     0
  1
*
  1
*
  0
XRECORD
  5
C16
102
{ACAD_REACTORS
330
B3B
102
}
330
B3B
100
AcDbXrecord
280
     1
  1
finish
  1
n-*
  1
*
  1
*
 70
     0
  1
*
  1
*
  0
XRECORD
  5
C17
102
{ACAD_REACTORS
330
B3B
102
}
330
B3B
100
AcDbXrecord
280
     1
  1
FIRE
  1
*FIRE*
  1
*
  1
*
 70
     0
  1
*
  1
*
  0
XRECORD
  5
C18
102
{ACAD_REACTORS
330
B3B
102
}
330
B3B
100
AcDbXrecord
280
     1
  1
fixture
  1
f-*
  1
*
  1
*
 70
     0
  1
*
  1
*
  0
XRECORD
  5
C19
102
{ACAD_REACTORS
330
B3B
102
}
330
B3B
100
AcDbXrecord
280
     1
  1
fl
  1
*FL*
  1
*
  1
*
 70
     0
  1
*
  1
*
  0
XRECORD
  5
C1A
102
{ACAD_REACTORS
330
B3B
102
}
330
B3B
100
AcDbXrecord
280
     1
  1
Floor
  1
A-Flor*
  1
*
  1
*
 70
     0
  1
*
  1
*
  0
XRECORD
  5
C1B
102
{ACAD_REACTORS
330
B3B
102
}
330
B3B
100
AcDbXrecord
280
     1
  1
FLOOR PLAN
  1
A-FLR-*
  1
*
  1
*
 70
     0
  1
*
  1
*
  0
XRECORD
  5
C1C
102
{ACAD_REACTORS
330
B3B
102
}
330
B3B
100
AcDbXrecord
280
     1
  1
fr
  1
*
  1
*
  1
*
 70
     4
  1
*
  1
*
  0
XRECORD
  5
C1D
102
{ACAD_REACTORS
330
B3B
102
}
330
B3B
100
AcDbXrecord
280
     1
  1
freeze
  1
*
  1
*
  1
*
 70
     4
  1
*
  1
*
  0
XRECORD
  5
C1E
102
{ACAD_REACTORS
330
B3B
102
}
330
B3B
100
AcDbXrecord
280
     1
  1
FRZ
  1
*
  1
*
  1
*
 70
     4
  1
*
  1
*
  0
XRECORD
  5
C1F
102
{ACAD_REACTORS
330
B3B
102
}
330
B3B
100
AcDbXrecord
280
     1
  1
Fugou
  1
*-Fugou*
  1
*
  1
*
 70
     0
  1
*
  1
*
  0
XRECORD
  5
C20
102
{ACAD_REACTORS
330
B3B
102
}
330
B3B
100
AcDbXrecord
280
     1
  1
FUGOU-TATEGU
  1
*FUGOU-TATEGU
  1
*
  1
*
 70
     0
  1
*
  1
*
  0
XRECORD
  5
C21
102
{ACAD_REACTORS
330
B3B
102
}
330
B3B
100
AcDbXrecord
280
     1
  1
FUKI
  1
*FUKI
  1
*
  1
*
 70
     0
  1
*
  1
*
  0
XRECORD
  5
C22
102
{ACAD_REACTORS
330
B3B
102
}
330
B3B
100
AcDbXrecord
280
     1
  1
FURN
  1
*F-*
  1
*
  1
*
 70
     0
  1
*
  1
*
  0
XRECORD
  5
C23
102
{ACAD_REACTORS
330
B3B
102
}
330
B3B
100
AcDbXrecord
280
     1
  1
FURNITURE
  1
*FN*
  1
*
  1
*
 70
     0
  1
*
  1
*
  0
XRECORD
  5
C24
102
{ACAD_REACTORS
330
B3B
102
}
330
B3B
100
AcDbXrecord
280
     1
  1
FUSE_00
  1
*
  1
*
  1
*
 70
     0
  1
*
  1
*
  0
XRECORD
  5
C25
102
{ACAD_REACTORS
330
B3B
102
}
330
B3B
100
AcDbXrecord
280
     1
  1
G
  1
*-G*
  1
*
  1
*
 70
     0
  1
*
  1
*
  0
XRECORD
  5
C26
102
{ACAD_REACTORS
330
B3B
102
}
330
B3B
100
AcDbXrecord
280
     1
  1
G(開口)を表示
  1
G*
  1
*
  1
*
 70
     0
  1
*
  1
*
  0
XRECORD
  5
C27
102
{ACAD_REACTORS
330
B3B
102
}
330
B3B
100
AcDbXrecord
280
     1
  1
GAIKOU
  1
*
  1
*
  1
*
 70
     0
  1
*
  1
*
  0
XRECORD
  5
C28
102
{ACAD_REACTORS
330
B3B
102
}
330
B3B
100
AcDbXrecord
280
     1
  1
gel
  1
*ILLUMI*
  1
*
  1
*
 70
     0
  1
*
  1
*
  0
XRECORD
  5
C29
102
{ACAD_REACTORS
330
B3B
102
}
330
B3B
100
AcDbXrecord
280
     1
  1
gen
  1
g*,*$*
  1
*
  1
*
 70
     0
  1
*
  1
*
  0
XRECORD
  5
C2A
102
{ACAD_REACTORS
330
B3B
102
}
330
B3B
100
AcDbXrecord
280
     1
  1
gondora
  1
a-gondora*
  1
*
  1
*
 70
     0
  1
*
  1
*
  0
XRECORD
  5
C2B
102
{ACAD_REACTORS
330
B3B
102
}
330
B3B
100
AcDbXrecord
280
     1
  1
green
  1
*
  1
green
  1
*
 70
     0
  1
*
  1
*
  0
XRECORD
  5
C2C
102
{ACAD_REACTORS
330
B3B
102
}
330
B3B
100
AcDbXrecord
280
     1
  1
GRID
  1
G*
  1
*
  1
*
 70
     0
  1
*
  1
*
  0
XRECORD
  5
C2D
102
{ACAD_REACTORS
330
B3B
102
}
330
B3B
100
AcDbXrecord
280
     1
  1
gris
  1
*
  1
*
  1
*
 70
     0
  1
*
  1
*
  0
XRECORD
  5
C2E
102
{ACAD_REACTORS
330
B3B
102
}
330
B3B
100
AcDbXrecord
280
     1
  1
H
  1
00*,01*,02*,03*,05*,06*,1*,2*,3*,4*,5*,6*,8*,D*,
  1
*
  1
*
 70
     0
  1
*
  1
*
  0
XRECORD
  5
C2F
102
{ACAD_REACTORS
330
B3B
102
}
330
B3B
100
AcDbXrecord
280
     1
  1
H-
  1
H-*
  1
*
  1
*
 70
     0
  1
*
  1
*
  0
XRECORD
  5
C30
102
{ACAD_REACTORS
330
B3B
102
}
330
B3B
100
AcDbXrecord
280
     1
  1
H-SIN
  1
*H-SIN
  1
*
  1
*
 70
     0
  1
*
  1
*
  0
XRECORD
  5
C31
102
{ACAD_REACTORS
330
B3B
102
}
330
B3B
100
AcDbXrecord
280
     1
  1
H(見掛)を表示
  1
H*
  1
*
  1
*
 70
     0
  1
*
  1
*
  0
XRECORD
  5
C32
102
{ACAD_REACTORS
330
B3B
102
}
330
B3B
100
AcDbXrecord
280
     1
  1
HA
  1
*HA*
  1
*
  1
*
 70
     0
  1
*
  1
*
  0
XRECORD
  5
C33
102
{ACAD_REACTORS
330
B3B
102
}
330
B3B
100
AcDbXrecord
280
     1
  1
haikin
  1
2-*
  1
*
  1
*
 70
     0
  1
*
  1
*
  0
XRECORD
  5
C34
102
{ACAD_REACTORS
330
B3B
102
}
330
B3B
100
AcDbXrecord
280
     1
  1
HAISEN
  1
*1,HAISEN
  1
*
  1
*
 70
     0
  1
*
  1
*
  0
XRECORD
  5
C35
102
{ACAD_REACTORS
330
B3B
102
}
330
B3B
100
AcDbXrecord
280
     1
  1
HARI
  1
*HARI
  1
*
  1
*
 70
     0
  1
*
  1
*
  0
XRECORD
  5
C36
102
{ACAD_REACTORS
330
B3B
102
}
330
B3B
100
AcDbXrecord
280
     1
  1
hasira
  1
*hasira*
  1
*
  1
*
 70
     0
  1
*
  1
*
  0
XRECORD
  5
C37
102
{ACAD_REACTORS
330
B3B
102
}
330
B3B
100
AcDbXrecord
280
     1
  1
HATCH
  1
*HATCH*
  1
*
  1
*
 70
     0
  1
*
  1
*
  0
XRECORD
  5
C38
102
{ACAD_REACTORS
330
B3B
102
}
330
B3B
100
AcDbXrecord
280
     1
  1
HCP
  1
*HCP*
  1
*
  1
*
 70
     0
  1
*
  1
*
  0
XRECORD
  5
C39
102
{ACAD_REACTORS
330
B3B
102
}
330
B3B
100
AcDbXrecord
280
     1
  1
HEISHO
  1
4MAJ
  1
*
  1
*
 70
     0
  1
*
  1
*
  0
XRECORD
  5
C3A
102
{ACAD_REACTORS
330
B3B
102
}
330
B3B
100
AcDbXrecord
280
     1
  1
HEISHO2
  1
4MAJ,3CWD,3TAT
  1
*
  1
*
 70
     0
  1
*
  1
*
  0
XRECORD
  5
C3B
102
{ACAD_REACTORS
330
B3B
102
}
330
B3B
100
AcDbXrecord
280
     1
  1
HIDDEN
  1
*
  1
*
  1
HIDDEN
 70
     0
  1
*
  1
*
  0
XRECORD
  5
C3C
102
{ACAD_REACTORS
330
B3B
102
}
330
B3B
100
AcDbXrecord
280
     1
  1
HOJO
  1
*HOJO
  1
*
  1
*
 70
     0
  1
*
  1
*
  0
XRECORD
  5
C3D
102
{ACAD_REACTORS
330
B3B
102
}
330
B3B
100
AcDbXrecord
280
     1
  1
hollywood
  1
*
  1
*
  1
*
 70
    12
  1
*
  1
*
  0
XRECORD
  5
C3E
102
{ACAD_REACTORS
330
B3B
102
}
330
B3B
100
AcDbXrecord
280
     1
  1
HOTEL
  1
*HOT*
  1
*
  1
*
 70
     0
  1
*
  1
*
  0
XRECORD
  5
C3F
102
{ACAD_REACTORS
330
B3B
102
}
330
B3B
100
AcDbXrecord
280
     1
  1
huse
  1
0,defpoints
  1
*
  1
*
 70
     0
  1
*
  1
*
  0
XRECORD
  5
C40
102
{ACAD_REACTORS
330
B3B
102
}
330
B3B
100
AcDbXrecord
280
     1
  1
HYOKI
  1
*HYOKI
  1
*
  1
*
 70
     0
  1
*
  1
*
  0
XRECORD
  5
C41
102
{ACAD_REACTORS
330
B3B
102
}
330
B3B
100
AcDbXrecord
280
     1
  1
HYOUKI
  1
*
  1
*
  1
*
 70
     0
  1
*
  1
*
  0
XRECORD
  5
C42
102
{ACAD_REACTORS
330
B3B
102
}
330
B3B
100
AcDbXrecord
280
     1
  1
i
  1
*
  1
*
  1
*
 70
     0
  1
*
  1
*
  0
XRECORD
  5
C43
102
{ACAD_REACTORS
330
B3B
102
}
330
B3B
100
AcDbXrecord
280
     1
  1
I(二次部材系))を表示
  1
I*
  1
*
  1
*
 70
     0
  1
*
  1
*
  0
XRECORD
  5
C44
102
{ACAD_REACTORS
330
B3B
102
}
330
B3B
100
AcDbXrecord
280
     1
  1
I2
  1
*I2CL*
  1
*
  1
*
 70
     0
  1
*
  1
*
  0
XRECORD
  5
C45
102
{ACAD_REACTORS
330
B3B
102
}
330
B3B
100
AcDbXrecord
280
     1
  1
i2cl
  1
*i2c?*
  1
*
  1
*
 70
     0
  1
*
  1
*
  0
XRECORD
  5
C46
102
{ACAD_REACTORS
330
B3B
102
}
330
B3B
100
AcDbXrecord
280
     1
  1
i5
  1
*i5*
  1
*
  1
*
 70
     0
  1
*
  1
*
  0
XRECORD
  5
C47
102
{ACAD_REACTORS
330
B3B
102
}
330
B3B
100
AcDbXrecord
280
     1
  1
i9
  1
*i9*
  1
*
  1
*
 70
     0
  1
*
  1
*
  0
XRECORD
  5
C48
102
{ACAD_REACTORS
330
B3B
102
}
330
B3B
100
AcDbXrecord
280
     1
  1
in
  1
*
  1
*
  1
*
 70
     4
  1
*
  1
*
  0
XRECORD
  5
C49
102
{ACAD_REACTORS
330
B3B
102
}
330
B3B
100
AcDbXrecord
280
     1
  1
INSERT図
  1
*
  1
*
  1
*
 70
    12
  1
*
  1
*
  0
XRECORD
  5
C4A
102
{ACAD_REACTORS
330
B3B
102
}
330
B3B
100
AcDbXrecord
280
     1
  1
ISSUE
  1
*-ISSUE1-*
  1
*
  1
*
 70
     0
  1
*
  1
*
  0
XRECORD
  5
C4B
102
{ACAD_REACTORS
330
B3B
102
}
330
B3B
100
AcDbXrecord
280
     1
  1
J
  1
*J*
  1
*
  1
*
 70
     0
  1
*
  1
*
  0
XRECORD
  5
C4C
102
{ACAD_REACTORS
330
B3B
102
}
330
B3B
100
AcDbXrecord
280
     1
  1
K
  1
K*
  1
*
  1
*
 70
     0
  1
*
  1
*
  0
XRECORD
  5
C4D
102
{ACAD_REACTORS
330
B3B
102
}
330
B3B
100
AcDbXrecord
280
     1
  1
KABE
  1
*KABE
  1
*
  1
*
 70
     0
  1
*
  1
*
  0
XRECORD
  5
C4E
102
{ACAD_REACTORS
330
B3B
102
}
330
B3B
100
AcDbXrecord
280
     1
  1
KABESHIN
  1
*A12
  1
*
  1
*
 70
     0
  1
*
  1
*
  0
XRECORD
  5
C4F
102
{ACAD_REACTORS
330
B3B
102
}
330
B3B
100
AcDbXrecord
280
     1
  1
KAGU
  1
*KAGU*
  1
*
  1
*
 70
     0
  1
*
  1
*
  0
XRECORD
  5
C50
102
{ACAD_REACTORS
330
B3B
102
}
330
B3B
100
AcDbXrecord
280
     1
  1
key
  1
keyplan
  1
*
  1
*
 70
     0
  1
*
  1
*
  0
XRECORD
  5
C51
102
{ACAD_REACTORS
330
B3B
102
}
330
B3B
100
AcDbXrecord
280
     1
  1
KI
  1
KI*
  1
*
  1
*
 70
     0
  1
*
  1
*
  0
XRECORD
  5
C52
102
{ACAD_REACTORS
330
B3B
102
}
330
B3B
100
AcDbXrecord
280
     1
  1
KIGO
  1
*KIGO*
  1
*
  1
*
 70
     0
  1
*
  1
*
  0
XRECORD
  5
C53
102
{ACAD_REACTORS
330
B3B
102
}
330
B3B
100
AcDbXrecord
280
     1
  1
KIJUN
  1
*KIJUN
  1
*
  1
*
 70
     0
  1
*
  1
*
  0
XRECORD
  5
C54
102
{ACAD_REACTORS
330
B3B
102
}
330
B3B
100
AcDbXrecord
280
     1
  1
kiso
  1
f1*
  1
*
  1
*
 70
     0
  1
*
  1
*
  0
XRECORD
  5
C55
102
{ACAD_REACTORS
330
B3B
102
}
330
B3B
100
AcDbXrecord
280
     1
  1
KSIN
  1
*2KSIN
  1
21
  1
*
 70
     0
  1
*
  1
*
  0
XRECORD
  5
C56
102
{ACAD_REACTORS
330
B3B
102
}
330
B3B
100
AcDbXrecord
280
     1
  1
kui
  1
*
  1
*
  1
*
 70
     4
  1
*
  1
*
  0
XRECORD
  5
C57
102
{ACAD_REACTORS
330
B3B
102
}
330
B3B
100
AcDbXrecord
280
     1
  1
KUTAI
  1
*
  1
*
  1
*
 70
     0
  1
*
  1
*
  0
XRECORD
  5
C58
102
{ACAD_REACTORS
330
B3B
102
}
330
B3B
100
AcDbXrecord
280
     1
  1
L
  1
L*
  1
*
  1
*
 70
     0
  1
*
  1
*
  0
XRECORD
  5
C59
102
{ACAD_REACTORS
330
B3B
102
}
330
B3B
100
AcDbXrecord
280
     1
  1
LEGEND
  1
*-C-*
  1
*
  1
*
 70
     0
  1
*
  1
*
  0
XRECORD
  5
C5A
102
{ACAD_REACTORS
330
B3B
102
}
330
B3B
100
AcDbXrecord
280
     1
  1
LGS
  1
*LGS*
  1
*
  1
*
 70
     0
  1
*
  1
*
  0
XRECORD
  5
C5B
102
{ACAD_REACTORS
330
B3B
102
}
330
B3B
100
AcDbXrecord
280
     1
  1
light
  1
*light*
  1
*
  1
*
 70
     0
  1
*
  1
*
  0
XRECORD
  5
C5C
102
{ACAD_REACTORS
330
B3B
102
}
330
B3B
100
AcDbXrecord
280
     1
  1
LIST
  1
*LIST*
  1
*
  1
*
 70
     0
  1
*
  1
*
  0
XRECORD
  5
C5D
102
{ACAD_REACTORS
330
B3B
102
}
330
B3B
100
AcDbXrecord
280
     1
  1
lixo
  1
*
  1
*
  1
*
 70
  3072
  1
*
  1
*
  0
XRECORD
  5
C5E
102
{ACAD_REACTORS
330
B3B
102
}
330
B3B
100
AcDbXrecord
280
     1
  1
LOCK
  1
*
  1
*
  1
*
 70
   256
  1
*
  1
*
  0
XRECORD
  5
C5F
102
{ACAD_REACTORS
330
B3B
102
}
330
B3B
100
AcDbXrecord
280
     1
  1
LTA
  1
*
  1
*
  1
*
 70
   768
  1
*
  1
*
  0
XRECORD
  5
C60
102
{ACAD_REACTORS
330
B3B
102
}
330
B3B
100
AcDbXrecord
280
     1
  1
Ｌ建具
  1
L*tategu*
  1
*
  1
*
 70
     0
  1
*
  1
*
  0
XRECORD
  5
C61
102
{ACAD_REACTORS
330
B3B
102
}
330
B3B
100
AcDbXrecord
280
     1
  1
M
  1
M*
  1
*
  1
*
 70
     0
  1
*
  1
*
  0
XRECORD
  5
C62
102
{ACAD_REACTORS
330
B3B
102
}
330
B3B
100
AcDbXrecord
280
     1
  1
MA
  1
MA*
  1
*
  1
*
 70
     0
  1
*
  1
*
  0
XRECORD
  5
C63
102
{ACAD_REACTORS
330
B3B
102
}
330
B3B
100
AcDbXrecord
280
     1
  1
MACONNERIE
  1
*
  1
*
  1
*
 70
     0
  1
*
  1
*
  0
XRECORD
  5
C64
102
{ACAD_REACTORS
330
B3B
102
}
330
B3B
100
AcDbXrecord
280
     1
  1
magenta
  1
*
  1
magenta
  1
*
 70
     0
  1
*
  1
*
  0
XRECORD
  5
C65
102
{ACAD_REACTORS
330
B3B
102
}
330
B3B
100
AcDbXrecord
280
     1
  1
magenta-bleu
  1
*
  1
magenta,bleu
  1
*
 70
     0
  1
*
  1
*
  0
XRECORD
  5
C66
102
{ACAD_REACTORS
330
B3B
102
}
330
B3B
100
AcDbXrecord
280
     1
  1
maji
  1
*A12
  1
*
  1
*
 70
     0
  1
*
  1
*
  0
XRECORD
  5
C67
102
{ACAD_REACTORS
330
B3B
102
}
330
B3B
100
AcDbXrecord
280
     1
  1
MAJIKIRI
  1
*MAJIKIRI
  1
*
  1
*
 70
     0
  1
*
  1
*
  0
XRECORD
  5
C68
102
{ACAD_REACTORS
330
B3B
102
}
330
B3B
100
AcDbXrecord
280
     1
  1
marco
  1
marco*
  1
*
  1
*
 70
     0
  1
*
  1
*
  0
XRECORD
  5
C69
102
{ACAD_REACTORS
330
B3B
102
}
330
B3B
100
AcDbXrecord
280
     1
  1
MB
  1
*MB
  1
*
  1
*
 70
     0
  1
*
  1
*
  0
XRECORD
  5
C6A
102
{ACAD_REACTORS
330
B3B
102
}
330
B3B
100
AcDbXrecord
280
     1
  1
meji
  1
*MEJI
  1
*
  1
*
 70
     0
  1
*
  1
*
  0
XRECORD
  5
C6B
102
{ACAD_REACTORS
330
B3B
102
}
330
B3B
100
AcDbXrecord
280
     1
  1
merceologico
  1
mq*
  1
*
  1
*
 70
     0
  1
*
  1
*
  0
XRECORD
  5
C6C
102
{ACAD_REACTORS
330
B3B
102
}
330
B3B
100
AcDbXrecord
280
     1
  1
MILL
  1
*MILL*
  1
*
  1
*
 70
     0
  1
*
  1
*
  0
XRECORD
  5
C6D
102
{ACAD_REACTORS
330
B3B
102
}
330
B3B
100
AcDbXrecord
280
     1
  1
MILLWORK
  1
*mILL*
  1
*
  1
*
 70
     0
  1
*
  1
*
  0
XRECORD
  5
C6E
102
{ACAD_REACTORS
330
B3B
102
}
330
B3B
100
AcDbXrecord
280
     1
  1
miwa
  1
*
  1
*
  1
*
 70
     0
  1
*
  1
*
  0
XRECORD
  5
C6F
102
{ACAD_REACTORS
330
B3B
102
}
330
B3B
100
AcDbXrecord
280
     1
  1
MOJI
  1
*MOJI
  1
*
  1
*
 70
     0
  1
*
  1
*
  0
XRECORD
  5
C70
102
{ACAD_REACTORS
330
B3B
102
}
330
B3B
100
AcDbXrecord
280
     1
  1
MOJI100
  1
*5MOJI100
  1
3
  1
*
 70
     0
  1
*
  1
*
  0
XRECORD
  5
C71
102
{ACAD_REACTORS
330
B3B
102
}
330
B3B
100
AcDbXrecord
280
     1
  1
N
  1
*N*
  1
*
  1
*
 70
     0
  1
*
  1
*
  0
XRECORD
  5
C72
102
{ACAD_REACTORS
330
B3B
102
}
330
B3B
100
AcDbXrecord
280
     1
  1
N-
  1
N-*
  1
*
  1
*
 70
     0
  1
*
  1
*
  0
XRECORD
  5
C73
102
{ACAD_REACTORS
330
B3B
102
}
330
B3B
100
AcDbXrecord
280
     1
  1
NAM
  1
*NAM*
  1
*
  1
*
 70
     0
  1
*
  1
*
  0
XRECORD
  5
C74
102
{ACAD_REACTORS
330
B3B
102
}
330
B3B
100
AcDbXrecord
280
     1
  1
NEW
  1
*NEW*
  1
*
  1
*
 70
     0
  1
*
  1
*
  0
XRECORD
  5
C75
102
{ACAD_REACTORS
330
B3B
102
}
330
B3B
100
AcDbXrecord
280
     1
  1
NHK
  1
N*
  1
*
  1
*
 70
     0
  1
*
  1
*
  0
XRECORD
  5
C76
102
{ACAD_REACTORS
330
B3B
102
}
330
B3B
100
AcDbXrecord
280
     1
  1
no xref
  1
~*|*
  1
*
  1
*
 70
     0
  1
*
  1
*
  0
XRECORD
  5
C77
102
{ACAD_REACTORS
330
B3B
102
}
330
B3B
100
AcDbXrecord
280
     1
  1
note
  1
tca-6f|*note*
  1
*
  1
*
 70
     0
  1
*
  1
*
  0
XRECORD
  5
C78
102
{ACAD_REACTORS
330
B3B
102
}
330
B3B
100
AcDbXrecord
280
     1
  1
NUM
  1
*NUM*
  1
*
  1
*
 70
     0
  1
*
  1
*
  0
XRECORD
  5
C79
102
{ACAD_REACTORS
330
B3B
102
}
330
B3B
100
AcDbXrecord
280
     1
  1
NUMB
  1
*NUM*
  1
*
  1
*
 70
     0
  1
*
  1
*
  0
XRECORD
  5
C7A
102
{ACAD_REACTORS
330
B3B
102
}
330
B3B
100
AcDbXrecord
280
     1
  1
O
  1
*O*
  1
*
  1
*
 70
     0
  1
*
  1
*
  0
XRECORD
  5
C7B
102
{ACAD_REACTORS
330
B3B
102
}
330
B3B
100
AcDbXrecord
280
     1
  1
OF
  1
*
  1
*
  1
*
 70
     3
  1
*
  1
*
  0
XRECORD
  5
C7C
102
{ACAD_REACTORS
330
B3B
102
}
330
B3B
100
AcDbXrecord
280
     1
  1
OFF
  1
*
  1
*
  1
*
 70
     3
  1
*
  1
*
  0
XRECORD
  5
C7D
102
{ACAD_REACTORS
330
B3B
102
}
330
B3B
100
AcDbXrecord
280
     1
  1
on
  1
*
  1
*
  1
*
 70
    13
  1
*
  1
*
  0
XRECORD
  5
C7E
102
{ACAD_REACTORS
330
B3B
102
}
330
B3B
100
AcDbXrecord
280
     1
  1
option 1
  1
1*
  1
*
  1
*
 70
     0
  1
*
  1
*
  0
XRECORD
  5
C7F
102
{ACAD_REACTORS
330
B3B
102
}
330
B3B
100
AcDbXrecord
280
     1
  1
option 2
  1
2*
  1
*
  1
*
 70
     0
  1
*
  1
*
  0
XRECORD
  5
C80
102
{ACAD_REACTORS
330
B3B
102
}
330
B3B
100
AcDbXrecord
280
     1
  1
OUTLINE
  1
T_*|OUTLINE
  1
*
  1
*
 70
     0
  1
*
  1
*
  0
XRECORD
  5
C81
102
{ACAD_REACTORS
330
B3B
102
}
330
B3B
100
AcDbXrecord
280
     1
  1
P
  1
*-P*
  1
*
  1
*
 70
     0
  1
*
  1
*
  0
XRECORD
  5
C82
102
{ACAD_REACTORS
330
B3B
102
}
330
B3B
100
AcDbXrecord
280
     1
  1
pa
  1
*pa*
  1
*
  1
*
 70
     0
  1
*
  1
*
  0
XRECORD
  5
C83
102
{ACAD_REACTORS
330
B3B
102
}
330
B3B
100
AcDbXrecord
280
     1
  1
PALFOND
  1
*
  1
*
  1
*
 70
    13
  1
*
  1
*
  0
XRECORD
  5
C84
102
{ACAD_REACTORS
330
B3B
102
}
330
B3B
100
AcDbXrecord
280
     1
  1
PAT
  1
*PAT*
  1
*
  1
*
 70
     0
  1
*
  1
*
  0
XRECORD
  5
C85
102
{ACAD_REACTORS
330
B3B
102
}
330
B3B
100
AcDbXrecord
280
     1
  1
PC
  1
PC*
  1
*
  1
*
 70
     0
  1
*
  1
*
  0
XRECORD
  5
C86
102
{ACAD_REACTORS
330
B3B
102
}
330
B3B
100
AcDbXrecord
280
     1
  1
PISO
  1
*PISO
  1
*
  1
*
 70
     0
  1
*
  1
*
  0
XRECORD
  5
C87
102
{ACAD_REACTORS
330
B3B
102
}
330
B3B
100
AcDbXrecord
280
     1
  1
PLAN
  1
A*,B*,SITE*
  1
*
  1
*
 70
     0
  1
*
  1
*
  0
XRECORD
  5
C88
102
{ACAD_REACTORS
330
B3B
102
}
330
B3B
100
AcDbXrecord
280
     1
  1
PLMB
  1
*PLMB*
  1
*
  1
*
 70
     0
  1
*
  1
*
  0
XRECORD
  5
C89
102
{ACAD_REACTORS
330
B3B
102
}
330
B3B
100
AcDbXrecord
280
     1
  1
plot
  1
*
  1
*
  1
*
 70
     1
  1
*
  1
*
  0
XRECORD
  5
C8A
102
{ACAD_REACTORS
330
B3B
102
}
330
B3B
100
AcDbXrecord
280
     1
  1
PLUMB
  1
*PLUMB*
  1
*
  1
*
 70
     0
  1
*
  1
*
  0
XRECORD
  5
C8B
102
{ACAD_REACTORS
330
B3B
102
}
330
B3B
100
AcDbXrecord
280
     1
  1
PNL
  1
*PNL*
  1
*
  1
*
 70
     0
  1
*
  1
*
  0
XRECORD
  5
C8C
102
{ACAD_REACTORS
330
B3B
102
}
330
B3B
100
AcDbXrecord
280
     1
  1
power
  1
p-*
  1
*
  1
*
 70
     0
  1
*
  1
*
  0
XRECORD
  5
C8D
102
{ACAD_REACTORS
330
B3B
102
}
330
B3B
100
AcDbXrecord
280
     1
  1
PRT
  1
*PRT*
  1
*
  1
*
 70
     0
  1
*
  1
*
  0
XRECORD
  5
C8E
102
{ACAD_REACTORS
330
B3B
102
}
330
B3B
100
AcDbXrecord
280
     1
  1
q
  1
*
  1
*
  1
*
 70
     4
  1
*
  1
*
  0
XRECORD
  5
C8F
102
{ACAD_REACTORS
330
B3B
102
}
330
B3B
100
AcDbXrecord
280
     1
  1
R
  1
R*
  1
*
  1
*
 70
     0
  1
*
  1
*
  0
XRECORD
  5
C90
102
{ACAD_REACTORS
330
B3B
102
}
330
B3B
100
AcDbXrecord
280
     1
  1
rack
  1
*rack*
  1
*
  1
*
 70
     0
  1
*
  1
*
  0
XRECORD
  5
C91
102
{ACAD_REACTORS
330
B3B
102
}
330
B3B
100
AcDbXrecord
280
     1
  1
RC
  1
*RC
  1
*
  1
*
 70
     0
  1
*
  1
*
  0
XRECORD
  5
C92
102
{ACAD_REACTORS
330
B3B
102
}
330
B3B
100
AcDbXrecord
280
     1
  1
RCP
  1
A*,C*
  1
*
  1
*
 70
     0
  1
*
  1
*
  0
XRECORD
  5
C93
102
{ACAD_REACTORS
330
B3B
102
}
330
B3B
100
AcDbXrecord
280
     1
  1
rm
  1
*r*
  1
*
  1
*
 70
     0
  1
*
  1
*
  0
XRECORD
  5
C94
102
{ACAD_REACTORS
330
B3B
102
}
330
B3B
100
AcDbXrecord
280
     1
  1
RMTAGS
  1
R*
  1
*
  1
*
 70
     0
  1
*
  1
*
  0
XRECORD
  5
C95
102
{ACAD_REACTORS
330
B3B
102
}
330
B3B
100
AcDbXrecord
280
     1
  1
RNUM
  1
*NUM*
  1
*
  1
*
 70
     0
  1
*
  1
*
  0
XRECORD
  5
C96
102
{ACAD_REACTORS
330
B3B
102
}
330
B3B
100
AcDbXrecord
280
     1
  1
ROOM
  1
*RM*
  1
*
  1
*
 70
     0
  1
*
  1
*
  0
XRECORD
  5
C97
102
{ACAD_REACTORS
330
B3B
102
}
330
B3B
100
AcDbXrecord
280
     1
  1
roomno
  1
*num*
  1
*
  1
*
 70
     0
  1
*
  1
*
  0
XRECORD
  5
C98
102
{ACAD_REACTORS
330
B3B
102
}
330
B3B
100
AcDbXrecord
280
     1
  1
rouge
  1
*
  1
1
  1
*
 70
     1
  1
*
  1
*
  0
XRECORD
  5
C99
102
{ACAD_REACTORS
330
B3B
102
}
330
B3B
100
AcDbXrecord
280
     1
  1
rtkl
  1
*rtkl*
  1
*
  1
*
 70
     0
  1
*
  1
*
  0
XRECORD
  5
C9A
102
{ACAD_REACTORS
330
B3B
102
}
330
B3B
100
AcDbXrecord
280
     1
  1
S
  1
0,05*,11*,12*,13*,14*,20*,21*,22*,55*,56*,
  1
*
  1
*
 70
     0
  1
*
  1
*
  0
XRECORD
  5
C9B
102
{ACAD_REACTORS
330
B3B
102
}
330
B3B
100
AcDbXrecord
280
     1
  1
saciencewold
  1
*
  1
*
  1
*
 70
     0
  1
*
  1
*
  0
XRECORD
  5
C9C
102
{ACAD_REACTORS
330
B3B
102
}
330
B3B
100
AcDbXrecord
280
     1
  1
SETUBI
  1
*SETUBI
  1
*
  1
*
 70
     0
  1
*
  1
*
  0
XRECORD
  5
C9D
102
{ACAD_REACTORS
330
B3B
102
}
330
B3B
100
AcDbXrecord
280
     1
  1
SHITU
  1
*SHITUMEI*
  1
*
  1
*
 70
     0
  1
*
  1
*
  0
XRECORD
  5
C9E
102
{ACAD_REACTORS
330
B3B
102
}
330
B3B
100
AcDbXrecord
280
     1
  1
SHITUMEI
  1
*SHITUMEI2
  1
*
  1
*
 70
     0
  1
*
  1
*
  0
XRECORD
  5
C9F
102
{ACAD_REACTORS
330
B3B
102
}
330
B3B
100
AcDbXrecord
280
     1
  1
SIAG
  1
*3SIAG
  1
*
  1
*
 70
     0
  1
*
  1
*
  0
XRECORD
  5
CA0
102
{ACAD_REACTORS
330
B3B
102
}
330
B3B
100
AcDbXrecord
280
     1
  1
SIAG-N
  1
*3SIAG-N
  1
7
  1
*
 70
     0
  1
*
  1
*
  0
XRECORD
  5
CA1
102
{ACAD_REACTORS
330
B3B
102
}
330
B3B
100
AcDbXrecord
280
     1
  1
SIAG3
  1
*3SIAG3
  1
3
  1
*
 70
     0
  1
*
  1
*
  0
XRECORD
  5
CA2
102
{ACAD_REACTORS
330
B3B
102
}
330
B3B
100
AcDbXrecord
280
     1
  1
sin
  1
*SIN*
  1
*
  1
*
 70
     0
  1
*
  1
*
  0
XRECORD
  5
CA3
102
{ACAD_REACTORS
330
B3B
102
}
330
B3B
100
AcDbXrecord
280
     1
  1
Sinm
  1
*-Sinm*
  1
*
  1
*
 70
     0
  1
*
  1
*
  0
XRECORD
  5
CA4
102
{ACAD_REACTORS
330
B3B
102
}
330
B3B
100
AcDbXrecord
280
     1
  1
SITA
  1
*3SITA
  1
*
  1
*
 70
     0
  1
*
  1
*
  0
XRECORD
  5
CA5
102
{ACAD_REACTORS
330
B3B
102
}
330
B3B
100
AcDbXrecord
280
     1
  1
siyah
  1
*
  1
*
  1
*
 70
     4
  1
*
  1
siyah
  0
XRECORD
  5
CA6
102
{ACAD_REACTORS
330
B3B
102
}
330
B3B
100
AcDbXrecord
280
     1
  1
SS
  1
*SS*
  1
*
  1
*
 70
     0
  1
*
  1
*
  0
XRECORD
  5
CA7
102
{ACAD_REACTORS
330
B3B
102
}
330
B3B
100
AcDbXrecord
280
     1
  1
ST
  1
*ST*
  1
*
  1
*
 70
     0
  1
*
  1
*
  0
XRECORD
  5
CA8
102
{ACAD_REACTORS
330
B3B
102
}
330
B3B
100
AcDbXrecord
280
     1
  1
STA
  1
STA*
  1
*
  1
*
 70
     0
  1
*
  1
*
  0
XRECORD
  5
CA9
102
{ACAD_REACTORS
330
B3B
102
}
330
B3B
100
AcDbXrecord
280
     1
  1
stairs
  1
*sta*
  1
*
  1
*
 70
     0
  1
*
  1
*
  0
XRECORD
  5
CAA
102
{ACAD_REACTORS
330
B3B
102
}
330
B3B
100
AcDbXrecord
280
     1
  1
SUGA5
  1
*4SUGA5
  1
5
  1
*
 70
     0
  1
*
  1
*
  0
XRECORD
  5
CAB
102
{ACAD_REACTORS
330
B3B
102
}
330
B3B
100
AcDbXrecord
280
     1
  1
SUNP
  1
*5SUNP100
  1
1
  1
*
 70
     0
  1
*
  1
*
  0
XRECORD
  5
CAC
102
{ACAD_REACTORS
330
B3B
102
}
330
B3B
100
AcDbXrecord
280
     1
  1
SUNP100
  1
*5SUNP100
  1
*
  1
*
 70
     0
  1
*
  1
*
  0
XRECORD
  5
CAD
102
{ACAD_REACTORS
330
B3B
102
}
330
B3B
100
AcDbXrecord
280
     1
  1
T
  1
T*
  1
*
  1
*
 70
     0
  1
*
  1
*
  0
XRECORD
  5
CAE
102
{ACAD_REACTORS
330
B3B
102
}
330
B3B
100
AcDbXrecord
280
     1
  1
TAKASA
  1
*
  1
2
  1
*
 70
     0
  1
*
  1
*
  0
XRECORD
  5
CAF
102
{ACAD_REACTORS
330
B3B
102
}
330
B3B
100
AcDbXrecord
280
     1
  1
TATE161
  1
*4TATE161
  1
161
  1
*
 70
     0
  1
*
  1
*
  0
XRECORD
  5
CB0
102
{ACAD_REACTORS
330
B3B
102
}
330
B3B
100
AcDbXrecord
280
     1
  1
TATEGU
  1
*TATEGU
  1
*
  1
*
 70
     0
  1
*
  1
*
  0
XRECORD
  5
CB1
102
{ACAD_REACTORS
330
B3B
102
}
330
B3B
100
AcDbXrecord
280
     1
  1
ten
  1
*ten*
  1
*
  1
*
 70
     0
  1
*
  1
*
  0
XRECORD
  5
CB2
102
{ACAD_REACTORS
330
B3B
102
}
330
B3B
100
AcDbXrecord
280
     1
  1
TENJYOU
  1
C-*
  1
*
  1
*
 70
     0
  1
*
  1
*
  0
XRECORD
  5
CB3
102
{ACAD_REACTORS
330
B3B
102
}
330
B3B
100
AcDbXrecord
280
     1
  1
TENJYOUNAI
  1
CI-*
  1
*
  1
*
 70
     0
  1
*
  1
*
  0
XRECORD
  5
CB4
102
{ACAD_REACTORS
330
B3B
102
}
330
B3B
100
AcDbXrecord
280
     1
  1
test
  1
keyplan
  1
*
  1
*
 70
     0
  1
*
  1
*
  0
XRECORD
  5
CB5
102
{ACAD_REACTORS
330
B3B
102
}
330
B3B
100
AcDbXrecord
280
     1
  1
text
  1
*text*
  1
*
  1
*
 70
     0
  1
*
  1
*
  0
XRECORD
  5
CB6
102
{ACAD_REACTORS
330
B3B
102
}
330
B3B
100
AcDbXrecord
280
     1
  1
thaw
  1
*
  1
*
  1
*
 70
    12
  1
*
  1
*
  0
XRECORD
  5
CB7
102
{ACAD_REACTORS
330
B3B
102
}
330
B3B
100
AcDbXrecord
280
     1
  1
TITL
  1
*8TITL
  1
4
  1
*
 70
     0
  1
*
  1
*
  0
XRECORD
  5
CB8
102
{ACAD_REACTORS
330
B3B
102
}
330
B3B
100
AcDbXrecord
280
     1
  1
tnjyou
  1
c-*
  1
*
  1
*
 70
     0
  1
*
  1
*
  0
XRECORD
  5
CB9
102
{ACAD_REACTORS
330
B3B
102
}
330
B3B
100
AcDbXrecord
280
     1
  1
tori
  1
*A11
  1
*
  1
*
 70
     0
  1
*
  1
*
  0
XRECORD
  5
CBA
102
{ACAD_REACTORS
330
B3B
102
}
330
B3B
100
AcDbXrecord
280
     1
  1
TORISHIN
  1
*A11
  1
*
  1
*
 70
     0
  1
*
  1
*
  0
XRECORD
  5
CBB
102
{ACAD_REACTORS
330
B3B
102
}
330
B3B
100
AcDbXrecord
280
     1
  1
tr
  1
*tr*
  1
*
  1
*
 70
     0
  1
*
  1
*
  0
XRECORD
  5
CBC
102
{ACAD_REACTORS
330
B3B
102
}
330
B3B
100
AcDbXrecord
280
     1
  1
TSIN
  1
*2TSIN
  1
*
  1
*
 70
     0
  1
*
  1
*
  0
XRECORD
  5
CBD
102
{ACAD_REACTORS
330
B3B
102
}
330
B3B
100
AcDbXrecord
280
     1
  1
TXT
  1
*TX*
  1
*
  1
*
 70
     0
  1
*
  1
*
  0
XRECORD
  5
CBE
102
{ACAD_REACTORS
330
B3B
102
}
330
B3B
100
AcDbXrecord
280
     1
  1
UNFREEZ
  1
*
  1
*
  1
*
 70
    12
  1
*
  1
*
  0
XRECORD
  5
CBF
102
{ACAD_REACTORS
330
B3B
102
}
330
B3B
100
AcDbXrecord
280
     1
  1
UNROCK
  1
*
  1
*
  1
*
 70
   768
  1
*
  1
*
  0
XRECORD
  5
CC0
102
{ACAD_REACTORS
330
B3B
102
}
330
B3B
100
AcDbXrecord
280
     1
  1
wada
  1
*
  1
*
  1
*
 70
     0
  1
*
  1
*
  0
XRECORD
  5
CC1
102
{ACAD_REACTORS
330
B3B
102
}
330
B3B
100
AcDbXrecord
280
     1
  1
waku
  1
waku
  1
*
  1
*
 70
     0
  1
*
  1
*
  0
XRECORD
  5
CC2
102
{ACAD_REACTORS
330
B3B
102
}
330
B3B
100
AcDbXrecord
280
     1
  1
X
  1
*$*$*
  1
*
  1
*
 70
     0
  1
*
  1
*
  0
XRECORD
  5
CC3
102
{ACAD_REACTORS
330
B3B
102
}
330
B3B
100
AcDbXrecord
280
     1
  1
X(敷地)を表示
  1
X*
  1
*
  1
*
 70
     0
  1
*
  1
*
  0
XRECORD
  5
CC4
102
{ACAD_REACTORS
330
B3B
102
}
330
B3B
100
AcDbXrecord
280
     1
  1
xref
  1
ground*
  1
*
  1
*
 70
     0
  1
*
  1
*
  0
XRECORD
  5
CC5
102
{ACAD_REACTORS
330
B3B
102
}
330
B3B
100
AcDbXrecord
280
     1
  1
YAJI
  1
*YAJI*
  1
*
  1
*
 70
     0
  1
*
  1
*
  0
XRECORD
  5
CC6
102
{ACAD_REACTORS
330
B3B
102
}
330
B3B
100
AcDbXrecord
280
     1
  1
yellow
  1
*
  1
yellow
  1
*
 70
     0
  1
*
  1
*
  0
XRECORD
  5
CC7
102
{ACAD_REACTORS
330
B3B
102
}
330
B3B
100
AcDbXrecord
280
     1
  1
YUKA
  1
F-*
  1
*
  1
*
 70
     0
  1
*
  1
*
  0
XRECORD
  5
CC8
102
{ACAD_REACTORS
330
B3B
102
}
330
B3B
100
AcDbXrecord
280
     1
  1
yその他
  1
y*
  1
*
  1
*
 70
     0
  1
*
  1
*
  0
XRECORD
  5
CC9
102
{ACAD_REACTORS
330
B3B
102
}
330
B3B
100
AcDbXrecord
280
     1
  1
Z
  1
Z*
  1
*
  1
*
 70
     0
  1
*
  1
*
  0
XRECORD
  5
CCA
102
{ACAD_REACTORS
330
B3B
102
}
330
B3B
100
AcDbXrecord
280
     1
  1
ZATU
  1
*ZATU
  1
*
  1
*
 70
     0
  1
*
  1
*
  0
XRECORD
  5
CCB
102
{ACAD_REACTORS
330
B3B
102
}
330
B3B
100
AcDbXrecord
280
     1
  1
z図枠
  1
z*
  1
*
  1
*
 70
     0
  1
*
  1
*
  0
XRECORD
  5
CCC
102
{ACAD_REACTORS
330
B3B
102
}
330
B3B
100
AcDbXrecord
280
     1
  1
к
  1
к-*
  1
*
  1
*
 70
     0
  1
*
  1
*
  0
XRECORD
  5
CCD
102
{ACAD_REACTORS
330
B3B
102
}
330
B3B
100
AcDbXrecord
280
     1
  1
перегородки
  1
*перегород*
  1
*
  1
*
 70
     0
  1
*
  1
*
  0
XRECORD
  5
CCE
102
{ACAD_REACTORS
330
B3B
102
}
330
B3B
100
AcDbXrecord
280
     1
  1
イベント給水
  1
*い*
  1
*
  1
*
 70
     0
  1
*
  1
*
  0
XRECORD
  5
CCF
102
{ACAD_REACTORS
330
B3B
102
}
330
B3B
100
AcDbXrecord
280
     1
  1
ガラス
  1
*HMOJI
  1
*
  1
*
 70
     0
  1
*
  1
*
  0
XRECORD
  5
CD0
102
{ACAD_REACTORS
330
B3B
102
}
330
B3B
100
AcDbXrecord
280
     1
  1
キ-プラン
  1
*HMOJI,*HOJO2,*HOJO4,*SINSEI
  1
*
  1
*
 70
     0
  1
*
  1
*
  0
XRECORD
  5
CD1
102
{ACAD_REACTORS
330
B3B
102
}
330
B3B
100
AcDbXrecord
280
     1
  1
キープラン
  1
キープラン*
  1
*
  1
*
 70
     0
  1
*
  1
*
  0
XRECORD
  5
CD2
102
{ACAD_REACTORS
330
B3B
102
}
330
B3B
100
AcDbXrecord
280
     1
  1
さーくる
  1
*
  1
*
  1
*
 70
     0
  1
*
  1
*
  0
XRECORD
  5
CD3
102
{ACAD_REACTORS
330
B3B
102
}
330
B3B
100
AcDbXrecord
280
     1
  1
シェルター
  1
シェルター*
  1
*
  1
*
 70
     0
  1
*
  1
*
  0
XRECORD
  5
CD4
102
{ACAD_REACTORS
330
B3B
102
}
330
B3B
100
AcDbXrecord
280
     1
  1
すべてに反映
  1
*す*
  1
*
  1
*
 70
     0
  1
*
  1
*
  0
XRECORD
  5
CD5
102
{ACAD_REACTORS
330
B3B
102
}
330
B3B
100
AcDbXrecord
280
     1
  1
スロープ
  1
SL*
  1
*
  1
*
 70
     0
  1
*
  1
*
  0
XRECORD
  5
CD6
102
{ACAD_REACTORS
330
B3B
102
}
330
B3B
100
AcDbXrecord
280
     1
  1
タイル割付平面図
  1
タイル*
  1
*
  1
*
 70
     0
  1
*
  1
*
  0
XRECORD
  5
CD7
102
{ACAD_REACTORS
330
B3B
102
}
330
B3B
100
AcDbXrecord
280
     1
  1
ﾃｷｽﾄのみ表示
  1
*NZ5-TEXT
  1
*
  1
*
 70
     0
  1
*
  1
*
  0
XRECORD
  5
CD8
102
{ACAD_REACTORS
330
B3B
102
}
330
B3B
100
AcDbXrecord
280
     1
  1
ハッチング
  1
*ハッチング
  1
*
  1
*
 70
     0
  1
*
  1
*
  0
XRECORD
  5
CD9
102
{ACAD_REACTORS
330
B3B
102
}
330
B3B
100
AcDbXrecord
280
     1
  1
フリーズ
  1
*
  1
*
  1
*
 70
     4
  1
*
  1
*
  0
XRECORD
  5
CDA
102
{ACAD_REACTORS
330
B3B
102
}
330
B3B
100
AcDbXrecord
280
     1
  1
フリーズof
  1
*
  1
*
  1
*
 70
    12
  1
*
  1
*
  0
XRECORD
  5
CDB
102
{ACAD_REACTORS
330
B3B
102
}
330
B3B
100
AcDbXrecord
280
     1
  1
ﾌﾘｰｽﾞ画層非表示
  1
*
  1
*
  1
*
 70
    12
  1
*
  1
*
  0
XRECORD
  5
CDC
102
{ACAD_REACTORS
330
B3B
102
}
330
B3B
100
AcDbXrecord
280
     1
  1
ﾌﾘｰｽﾞ画面非表示
  1
*
  1
*
  1
*
 70
    12
  1
*
  1
*
  0
XRECORD
  5
CDD
102
{ACAD_REACTORS
330
B3B
102
}
330
B3B
100
AcDbXrecord
280
     1
  1
ﾌﾘｰｽﾞ解除
  1
*
  1
*
  1
*
 70
    12
  1
*
  1
*
  0
XRECORD
  5
CDE
102
{ACAD_REACTORS
330
B3B
102
}
330
B3B
100
AcDbXrecord
280
     1
  1
フリーズ解除
  1
*
  1
*
  1
*
 70
    12
  1
*
  1
*
  0
XRECORD
  5
CDF
102
{ACAD_REACTORS
330
B3B
102
}
330
B3B
100
AcDbXrecord
280
     1
  1
ﾌﾟﾚｾﾞﾝ枠
  1
*|ﾌﾟﾚｾﾞﾝ枠
  1
*
  1
*
 70
     0
  1
*
  1
*
  0
XRECORD
  5
CE0
102
{ACAD_REACTORS
330
B3B
102
}
330
B3B
100
AcDbXrecord
280
     1
  1
マーク
  1
*マーク
  1
*
  1
*
 70
     0
  1
*
  1
*
  0
XRECORD
  5
CE1
102
{ACAD_REACTORS
330
B3B
102
}
330
B3B
100
AcDbXrecord
280
     1
  1
ﾒｲﾝﾌﾟﾗｻﾞ
  1
*め*
  1
*
  1
*
 70
     0
  1
*
  1
*
  0
XRECORD
  5
CE2
102
{ACAD_REACTORS
330
B3B
102
}
330
B3B
100
AcDbXrecord
280
     1
  1
レベル
  1
*た*
  1
*
  1
*
 70
     0
  1
*
  1
*
  0
XRECORD
  5
CE3
102
{ACAD_REACTORS
330
B3B
102
}
330
B3B
100
AcDbXrecord
280
     1
  1
ロック
  1
*
  1
*
  1
*
 70
   256
  1
*
  1
*
  0
XRECORD
  5
CE4
102
{ACAD_REACTORS
330
B3B
102
}
330
B3B
100
AcDbXrecord
280
     1
  1
一括非表示
  1
*
  1
*
  1
*
 70
     3
  1
*
  1
*
  0
XRECORD
  5
CE5
102
{ACAD_REACTORS
330
B3B
102
}
330
B3B
100
AcDbXrecord
280
     1
  1
一般図
  1
hatch
  1
*
  1
*
 70
     7
  1
*
  1
*
  0
XRECORD
  5
CE6
102
{ACAD_REACTORS
330
B3B
102
}
330
B3B
100
AcDbXrecord
280
     1
  1
印刷
  1
*
  1
*
  1
*
 70
    13
  1
*
  1
*
  0
XRECORD
  5
CE7
102
{ACAD_REACTORS
330
B3B
102
}
330
B3B
100
AcDbXrecord
280
     1
  1
荏原機器
  1
KIKI*
  1
*
  1
*
 70
     0
  1
*
  1
*
  0
XRECORD
  5
CE8
102
{ACAD_REACTORS
330
B3B
102
}
330
B3B
100
AcDbXrecord
280
     1
  1
荏原機器基礎
  1
a3*,KIKI*,text*,stage,矢視記号
  1
*
  1
*
 70
     0
  1
*
  1
*
  0
XRECORD
  5
CE9
102
{ACAD_REACTORS
330
B3B
102
}
330
B3B
100
AcDbXrecord
280
     1
  1
衛生設備図
  1
001*,002*,004*,005*,007*,010*,039*,040*,041*,042*,043*
  1
*
  1
*
 70
     0
  1
*
  1
*
  0
XRECORD
  5
CEA
102
{ACAD_REACTORS
330
B3B
102
}
330
B3B
100
AcDbXrecord
280
     1
  1
黄色
  1
*
  1
YELLOW
  1
*
 70
     0
  1
*
  1
*
  0
XRECORD
  5
CEB
102
{ACAD_REACTORS
330
B3B
102
}
330
B3B
100
AcDbXrecord
280
     1
  1
下階
  1
下階*
  1
*
  1
*
 70
     0
  1
*
  1
*
  0
XRECORD
  5
CEC
102
{ACAD_REACTORS
330
B3B
102
}
330
B3B
100
AcDbXrecord
280
     1
  1
下地
  1
*-下
  1
*
  1
*
 70
     0
  1
*
  1
*
  0
XRECORD
  5
CED
102
{ACAD_REACTORS
330
B3B
102
}
330
B3B
100
AcDbXrecord
280
     1
  1
外構
  1
外構*
  1
*
  1
*
 70
     0
  1
*
  1
*
  0
XRECORD
  5
CEE
102
{ACAD_REACTORS
330
B3B
102
}
330
B3B
100
AcDbXrecord
280
     1
  1
外部参照－建築
  1
A*
  1
9
  1
*
 70
     0
  1
*
  1
*
  0
XRECORD
  5
CEF
102
{ACAD_REACTORS
330
B3B
102
}
330
B3B
100
AcDbXrecord
280
     1
  1
外部参照除く
  1
A*
  1
*
  1
*
 70
     0
  1
*
  1
*
  0
XRECORD
  5
CF0
102
{ACAD_REACTORS
330
B3B
102
}
330
B3B
100
AcDbXrecord
280
     1
  1
割り付け平面図
  1
*わ*
  1
*
  1
*
 70
     0
  1
*
  1
*
  0
XRECORD
  5
CF1
102
{ACAD_REACTORS
330
B3B
102
}
330
B3B
100
AcDbXrecord
280
     1
  1
割付平面図
  1
*わ*
  1
*
  1
*
 70
     0
  1
*
  1
*
  0
XRECORD
  5
CF2
102
{ACAD_REACTORS
330
B3B
102
}
330
B3B
100
AcDbXrecord
280
     1
  1
潅水平面
  1
*か*
  1
*
  1
*
 70
     0
  1
*
  1
*
  0
XRECORD
  5
CF3
102
{ACAD_REACTORS
330
B3B
102
}
330
B3B
100
AcDbXrecord
280
     1
  1
基
  1
*_基
  1
*
  1
*
 70
     0
  1
*
  1
*
  0
XRECORD
  5
CF4
102
{ACAD_REACTORS
330
B3B
102
}
330
B3B
100
AcDbXrecord
280
     1
  1
基準
  1
基*
  1
*
  1
*
 70
     0
  1
*
  1
*
  0
XRECORD
  5
CF5
102
{ACAD_REACTORS
330
B3B
102
}
330
B3B
100
AcDbXrecord
280
     1
  1
基準階
  1
*基準*
  1
*
  1
*
 70
     0
  1
*
  1
*
  0
XRECORD
  5
CF6
102
{ACAD_REACTORS
330
B3B
102
}
330
B3B
100
AcDbXrecord
280
     1
  1
基礎OFF
  1
+*
  1
*
  1
*
 70
     0
  1
*
  1
*
  0
XRECORD
  5
CF7
102
{ACAD_REACTORS
330
B3B
102
}
330
B3B
100
AcDbXrecord
280
     1
  1
基礎伏
  1
*
  1
*
  1
*
 70
     0
  1
*
  1
*
  0
XRECORD
  5
CF8
102
{ACAD_REACTORS
330
B3B
102
}
330
B3B
100
AcDbXrecord
280
     1
  1
基礎伏図
  1
SIZE,HOJO,ZATU,HATCH,GL-HARI,GL-HASIRA,KISO,KUI,MOJI-K1,GL-FUGO,SUNPO-K1,SUNPO,SUNPO2,SUNPO1,KIJUN3,KIJUN,SIZE
  1
*
  1
*
 70
     0
  1
*
  1
*
  0
XRECORD
  5
CF9
102
{ACAD_REACTORS
330
B3B
102
}
330
B3B
100
AcDbXrecord
280
     1
  1
基盤改良平面図
  1
*き*
  1
*
  1
*
 70
     0
  1
*
  1
*
  0
XRECORD
  5
CFA
102
{ACAD_REACTORS
330
B3B
102
}
330
B3B
100
AcDbXrecord
280
     1
  1
既存杭
  1
既存杭*
  1
*
  1
*
 70
     0
  1
*
  1
*
  0
XRECORD
  5
CFB
102
{ACAD_REACTORS
330
B3B
102
}
330
B3B
100
AcDbXrecord
280
     1
  1
機器
  1
KIKI*
  1
*
  1
*
 70
     0
  1
*
  1
*
  0
XRECORD
  5
CFC
102
{ACAD_REACTORS
330
B3B
102
}
330
B3B
100
AcDbXrecord
280
     1
  1
機器基礎
  1
a3*,KIKI*,text*,stage,矢視記号
  1
*
  1
*
 70
     0
  1
*
  1
*
  0
XRECORD
  5
CFD
102
{ACAD_REACTORS
330
B3B
102
}
330
B3B
100
AcDbXrecord
280
     1
  1
記号
  1
*記号
  1
*
  1
*
 70
     0
  1
*
  1
*
  0
XRECORD
  5
CFE
102
{ACAD_REACTORS
330
B3B
102
}
330
B3B
100
AcDbXrecord
280
     1
  1
給水設備平面図
  1
*み*
  1
*
  1
*
 70
     0
  1
*
  1
*
  0
XRECORD
  5
CFF
102
{ACAD_REACTORS
330
B3B
102
}
330
B3B
100
AcDbXrecord
280
     1
  1
給水平面
  1
*き*
  1
*
  1
*
 70
     0
  1
*
  1
*
  0
XRECORD
  5
D00
102
{ACAD_REACTORS
330
B3B
102
}
330
B3B
100
AcDbXrecord
280
     1
  1
区画
  1
区画*
  1
*
  1
*
 70
     0
  1
*
  1
*
  0
XRECORD
  5
D01
102
{ACAD_REACTORS
330
B3B
102
}
330
B3B
100
AcDbXrecord
280
     1
  1
躯体
  1
*A21*
  1
*
  1
*
 70
     0
  1
*
  1
*
  0
XRECORD
  5
D02
102
{ACAD_REACTORS
330
B3B
102
}
330
B3B
100
AcDbXrecord
280
     1
  1
躯体図
  1
D*
  1
*
  1
*
 70
     0
  1
*
  1
*
  0
XRECORD
  5
D03
102
{ACAD_REACTORS
330
B3B
102
}
330
B3B
100
AcDbXrecord
280
     1
  1
空調jv
  1
00i*
  1
*
  1
*
 70
     0
  1
*
  1
*
  0
XRECORD
  5
D04
102
{ACAD_REACTORS
330
B3B
102
}
330
B3B
100
AcDbXrecord
280
     1
  1
空調設備図
  1
001*,002*,004*,005*,007*,010*,033*,034*,035*,036*,037*,038*
  1
*
  1
*
 70
     0
  1
*
  1
*
  0
XRECORD
  5
D05
102
{ACAD_REACTORS
330
B3B
102
}
330
B3B
100
AcDbXrecord
280
     1
  1
郡川
  1
kijun,kabe,sunpo
  1
*
  1
*
 70
     3
  1
*
  1
*
  0
XRECORD
  5
D06
102
{ACAD_REACTORS
330
B3B
102
}
330
B3B
100
AcDbXrecord
280
     1
  1
型枠計画図
  1
001*,002*,003*,004*,005*,006*,007*,010*,012*,050*,051*,055*,056*,057*,058*,059*,060*,061*,062*,063*,064*,065*,066*,067*,068*,069*,070*,071*,072*,073*,074*,075*
  1
*
  1
*
 70
     0
  1
*
  1
*
  0
XRECORD
  5
D07
102
{ACAD_REACTORS
330
B3B
102
}
330
B3B
100
AcDbXrecord
280
     1
  1
計画高平面図
  1
*く*
  1
*
  1
*
 70
     0
  1
*
  1
*
  0
XRECORD
  5
D08
102
{ACAD_REACTORS
330
B3B
102
}
330
B3B
100
AcDbXrecord
280
     1
  1
計画平面
  1
*け*
  1
*
  1
*
 70
     0
  1
*
  1
*
  0
XRECORD
  5
D09
102
{ACAD_REACTORS
330
B3B
102
}
330
B3B
100
AcDbXrecord
280
     1
  1
計画平面図
  1
*け*
  1
*
  1
*
 70
     0
  1
*
  1
*
  0
XRECORD
  5
D0A
102
{ACAD_REACTORS
330
B3B
102
}
330
B3B
100
AcDbXrecord
280
     1
  1
劇場ﾌﾟﾗｻﾞ
  1
*え*
  1
*
  1
*
 70
     0
  1
*
  1
*
  0
XRECORD
  5
D0B
102
{ACAD_REACTORS
330
B3B
102
}
330
B3B
100
AcDbXrecord
280
     1
  1
劇場棟
  1
*げ*
  1
*
  1
*
 70
     0
  1
*
  1
*
  0
XRECORD
  5
D0C
102
{ACAD_REACTORS
330
B3B
102
}
330
B3B
100
AcDbXrecord
280
     1
  1
建具
  1
*-建
  1
*
  1
*
 70
     0
  1
*
  1
*
  0
XRECORD
  5
D0D
102
{ACAD_REACTORS
330
B3B
102
}
330
B3B
100
AcDbXrecord
280
     1
  1
建築接地図
  1
A01*
  1
*
  1
*
 70
     0
  1
*
  1
*
  0
XRECORD
  5
D0E
102
{ACAD_REACTORS
330
B3B
102
}
330
B3B
100
AcDbXrecord
280
     1
  1
見上げ
  1
*U
  1
*
  1
*
 70
     0
  1
*
  1
*
  0
XRECORD
  5
D0F
102
{ACAD_REACTORS
330
B3B
102
}
330
B3B
100
AcDbXrecord
280
     1
  1
現在非表示画層
  1
*
  1
*
  1
*
 70
     3
  1
*
  1
*
  0
XRECORD
  5
D10
102
{ACAD_REACTORS
330
B3B
102
}
330
B3B
100
AcDbXrecord
280
     1
  1
光天井
  1
*-光
  1
*
  1
*
 70
     0
  1
*
  1
*
  0
XRECORD
  5
D11
102
{ACAD_REACTORS
330
B3B
102
}
330
B3B
100
AcDbXrecord
280
     1
  1
公園
  1
K*
  1
*
  1
*
 70
     0
  1
*
  1
*
  0
XRECORD
  5
D12
102
{ACAD_REACTORS
330
B3B
102
}
330
B3B
100
AcDbXrecord
280
     1
  1
工事区分図
  1
*じ*
  1
*
  1
*
 70
     0
  1
*
  1
*
  0
XRECORD
  5
D13
102
{ACAD_REACTORS
330
B3B
102
}
330
B3B
100
AcDbXrecord
280
     1
  1
工事区分図AB
  1
*α*
  1
*
  1
*
 70
     0
  1
*
  1
*
  0
XRECORD
  5
D14
102
{ACAD_REACTORS
330
B3B
102
}
330
B3B
100
AcDbXrecord
280
     1
  1
工事区分図CD
  1
*β*
  1
*
  1
*
 70
     0
  1
*
  1
*
  0
XRECORD
  5
D15
102
{ACAD_REACTORS
330
B3B
102
}
330
B3B
100
AcDbXrecord
280
     1
  1
高さ
  1
204-TEXT,東西道路*
  1
*
  1
*
 70
     0
  1
*
  1
*
  0
XRECORD
  5
D16
102
{ACAD_REACTORS
330
B3B
102
}
330
B3B
100
AcDbXrecord
280
     1
  1
高木植栽平面
  1
*こ*
  1
*
  1
*
 70
     0
  1
*
  1
*
  0
XRECORD
  5
D17
102
{ACAD_REACTORS
330
B3B
102
}
330
B3B
100
AcDbXrecord
280
     1
  1
高木平面図
  1
*こ*
  1
*
  1
*
 70
     0
  1
*
  1
*
  0
XRECORD
  5
D18
102
{ACAD_REACTORS
330
B3B
102
}
330
B3B
100
AcDbXrecord
280
     1
  1
座席のみ
  1
*
  1
*
  1
*
 70
     0
  1
*
  1
*
  0
XRECORD
  5
D19
102
{ACAD_REACTORS
330
B3B
102
}
330
B3B
100
AcDbXrecord
280
     1
  1
作業
  1
100-*,地区*,
  1
*
  1
*
 70
     1
  1
*
  1
*
  0
XRECORD
  5
D1A
102
{ACAD_REACTORS
330
B3B
102
}
330
B3B
100
AcDbXrecord
280
     1
  1
参考
  1
六*
  1
*
  1
*
 70
     0
  1
*
  1
*
  0
XRECORD
  5
D1B
102
{ACAD_REACTORS
330
B3B
102
}
330
B3B
100
AcDbXrecord
280
     1
  1
山止根切計画図
  1
001*,002*,003*,004*,005*,007*,012*,049*,050*,051*,052*,053*,054*,055*,056*,057*,058*,059*,060*,061*,062*,064*,065*,066*,067*,068*,069*,070*,071*,072*,073*,074*,075*
  1
*
  1
*
 70
     0
  1
*
  1
*
  0
XRECORD
  5
D1C
102
{ACAD_REACTORS
330
B3B
102
}
330
B3B
100
AcDbXrecord
280
     1
  1
仕
  1
*_仕
  1
*
  1
*
 70
     0
  1
*
  1
*
  0
XRECORD
  5
D1D
102
{ACAD_REACTORS
330
B3B
102
}
330
B3B
100
AcDbXrecord
280
     1
  1
仕上
  1
*-2
  1
*
  1
*
 70
     0
  1
*
  1
*
  0
XRECORD
  5
D1E
102
{ACAD_REACTORS
330
B3B
102
}
330
B3B
100
AcDbXrecord
280
     1
  1
仕上図
  1
C*
  1
*
  1
*
 70
     0
  1
*
  1
*
  0
XRECORD
  5
D1F
102
{ACAD_REACTORS
330
B3B
102
}
330
B3B
100
AcDbXrecord
280
     1
  1
使用中
  1
使用中
  1
*
  1
*
 70
     1
  1
*
  1
*
  0
XRECORD
  5
D20
102
{ACAD_REACTORS
330
B3B
102
}
330
B3B
100
AcDbXrecord
280
     1
  1
施設配置図
  1
*し*
  1
*
  1
*
 70
     0
  1
*
  1
*
  0
XRECORD
  5
D21
102
{ACAD_REACTORS
330
B3B
102
}
330
B3B
100
AcDbXrecord
280
     1
  1
施設平面
  1
*し*
  1
*
  1
*
 70
     0
  1
*
  1
*
  0
XRECORD
  5
D22
102
{ACAD_REACTORS
330
B3B
102
}
330
B3B
100
AcDbXrecord
280
     1
  1
施設平面図
  1
*し*
  1
*
  1
*
 70
     0
  1
*
  1
*
  0
XRECORD
  5
D23
102
{ACAD_REACTORS
330
B3B
102
}
330
B3B
100
AcDbXrecord
280
     1
  1
紫
  1
*
  1
Magenta
  1
*
 70
     0
  1
*
  1
*
  0
XRECORD
  5
D24
102
{ACAD_REACTORS
330
B3B
102
}
330
B3B
100
AcDbXrecord
280
     1
  1
床伏図
  1
*U*,20,Z20,Z22,Z23
  1
*
  1
*
 70
     0
  1
*
  1
*
  0
XRECORD
  5
D25
102
{ACAD_REACTORS
330
B3B
102
}
330
B3B
100
AcDbXrecord
280
     1
  1
昇降機
  1
T*
  1
*
  1
*
 70
     0
  1
*
  1
*
  0
XRECORD
  5
D26
102
{ACAD_REACTORS
330
B3B
102
}
330
B3B
100
AcDbXrecord
280
     1
  1
照明
  1
*ら*,*れ*
  1
*
  1
*
 70
     0
  1
*
  1
*
  0
XRECORD
  5
D27
102
{ACAD_REACTORS
330
B3B
102
}
330
B3B
100
AcDbXrecord
280
     1
  1
照明Ｃ１
  1
*ら*
  1
*
  1
*
 70
     0
  1
*
  1
*
  0
XRECORD
  5
D28
102
{ACAD_REACTORS
330
B3B
102
}
330
B3B
100
AcDbXrecord
280
     1
  1
照明Ｃ２
  1
*れ*
  1
*
  1
*
 70
     0
  1
*
  1
*
  0
XRECORD
  5
D29
102
{ACAD_REACTORS
330
B3B
102
}
330
B3B
100
AcDbXrecord
280
     1
  1
照明配置図
  1
*め*
  1
*
  1
*
 70
     0
  1
*
  1
*
  0
XRECORD
  5
D2A
102
{ACAD_REACTORS
330
B3B
102
}
330
B3B
100
AcDbXrecord
280
     1
  1
詳細
  1
詳細*
  1
*
  1
*
 70
     0
  1
*
  1
*
  0
XRECORD
  5
D2B
102
{ACAD_REACTORS
330
B3B
102
}
330
B3B
100
AcDbXrecord
280
     1
  1
詳細図
  1
*u*,*w*,*y*,*x*,*s*,*V*,06
  1
*
  1
*
 70
     0
  1
*
  1
*
  0
XRECORD
  5
D2C
102
{ACAD_REACTORS
330
B3B
102
}
330
B3B
100
AcDbXrecord
280
     1
  1
上階躯体図
  1
KUTAI-Z,SIZE,HOJO,ZATU,HATCH,BR-S,KABE2,KABE,MAJIKIRI,KOBARI-S,KOBARI-R,HARI-S,HARI-R,HASIRA-S,HASIRA-R,MOJI-K2,FL-FUGO,FUGO-W,SUNPO-K2,SUNPO,SUNPO2,SUNPO1,KIJUN2,KIJUN1,KIJUN,
  1
*
  1
*
 70
     0
  1
*
  1
*
  0
XRECORD
  5
D2D
102
{ACAD_REACTORS
330
B3B
102
}
330
B3B
100
AcDbXrecord
280
     1
  1
植栽
  1
*木*
  1
*
  1
*
 70
     0
  1
*
  1
*
  0
XRECORD
  5
D2E
102
{ACAD_REACTORS
330
B3B
102
}
330
B3B
100
AcDbXrecord
280
     1
  1
植栽基盤平面
  1
*ど*
  1
*
  1
*
 70
     0
  1
*
  1
*
  0
XRECORD
  5
D2F
102
{ACAD_REACTORS
330
B3B
102
}
330
B3B
100
AcDbXrecord
280
     1
  1
植栽現況
  1
*植*
  1
*
  1
*
 70
     0
  1
*
  1
*
  0
XRECORD
  5
D30
102
{ACAD_REACTORS
330
B3B
102
}
330
B3B
100
AcDbXrecord
280
     1
  1
植栽高木AB
  1
*λ*
  1
*
  1
*
 70
     0
  1
*
  1
*
  0
XRECORD
  5
D31
102
{ACAD_REACTORS
330
B3B
102
}
330
B3B
100
AcDbXrecord
280
     1
  1
植栽高木CD
  1
*ｑ*
  1
*
  1
*
 70
     0
  1
*
  1
*
  0
XRECORD
  5
D32
102
{ACAD_REACTORS
330
B3B
102
}
330
B3B
100
AcDbXrecord
280
     1
  1
植栽低木AB
  1
*γ*
  1
*
  1
*
 70
     0
  1
*
  1
*
  0
XRECORD
  5
D33
102
{ACAD_REACTORS
330
B3B
102
}
330
B3B
100
AcDbXrecord
280
     1
  1
植栽低木ＣＤ
  1
*Θ*
  1
*
  1
*
 70
     0
  1
*
  1
*
  0
XRECORD
  5
D34
102
{ACAD_REACTORS
330
B3B
102
}
330
B3B
100
AcDbXrecord
280
     1
  1
色番号8
  1
*
  1
8
  1
*
 70
     0
  1
*
  1
*
  0
XRECORD
  5
D35
102
{ACAD_REACTORS
330
B3B
102
}
330
B3B
100
AcDbXrecord
280
     1
  1
申請用
  1
*あ*,*き*,*グ*,*み*,*オ*,*ピ*,*92*
  1
*
  1
*
 70
     0
  1
*
  1
*
  0
XRECORD
  5
D36
102
{ACAD_REACTORS
330
B3B
102
}
330
B3B
100
AcDbXrecord
280
     1
  1
芯
  1
*芯
  1
*
  1
*
 70
     0
  1
*
  1
*
  0
XRECORD
  5
D37
102
{ACAD_REACTORS
330
B3B
102
}
330
B3B
100
AcDbXrecord
280
     1
  1
芯関係
  1
001*,002*,032*
  1
*
  1
*
 70
     0
  1
*
  1
*
  0
XRECORD
  5
D38
102
{ACAD_REACTORS
330
B3B
102
}
330
B3B
100
AcDbXrecord
280
     1
  1
水
  1
*
  1
cyan
  1
*
 70
     0
  1
*
  1
*
  0
XRECORD
  5
D39
102
{ACAD_REACTORS
330
B3B
102
}
330
B3B
100
AcDbXrecord
280
     1
  1
水色
  1
*
  1
Cyan
  1
*
 70
     0
  1
*
  1
*
  0
XRECORD
  5
D3A
102
{ACAD_REACTORS
330
B3B
102
}
330
B3B
100
AcDbXrecord
280
     1
  1
寸法
  1
*寸法
  1
*
  1
*
 70
     0
  1
*
  1
*
  0
XRECORD
  5
D3B
102
{ACAD_REACTORS
330
B3B
102
}
330
B3B
100
AcDbXrecord
280
     1
  1
製作
  1
B*
  1
*
  1
*
 70
     0
  1
*
  1
*
  0
XRECORD
  5
D3C
102
{ACAD_REACTORS
330
B3B
102
}
330
B3B
100
AcDbXrecord
280
     1
  1
製作-躯体
  1
BS*
  1
*
  1
*
 70
     0
  1
*
  1
*
  0
XRECORD
  5
D3D
102
{ACAD_REACTORS
330
B3B
102
}
330
B3B
100
AcDbXrecord
280
     1
  1
製作-建築
  1
BD*
  1
*
  1
*
 70
     0
  1
*
  1
*
  0
XRECORD
  5
D3E
102
{ACAD_REACTORS
330
B3B
102
}
330
B3B
100
AcDbXrecord
280
     1
  1
製作-昇降機
  1
BT*
  1
*
  1
*
 70
     0
  1
*
  1
*
  0
XRECORD
  5
D3F
102
{ACAD_REACTORS
330
B3B
102
}
330
B3B
100
AcDbXrecord
280
     1
  1
青
  1
*
  1
blue
  1
*
 70
     0
  1
*
  1
*
  0
XRECORD
  5
D40
102
{ACAD_REACTORS
330
B3B
102
}
330
B3B
100
AcDbXrecord
280
     1
  1
設備
  1
E*,P*,M*
  1
*
  1
*
 70
     0
  1
*
  1
*
  0
XRECORD
  5
D41
102
{ACAD_REACTORS
330
B3B
102
}
330
B3B
100
AcDbXrecord
280
     1
  1
設備プロット
  1
02*
  1
*
  1
*
 70
     0
  1
*
  1
*
  0
XRECORD
  5
D42
102
{ACAD_REACTORS
330
B3B
102
}
330
B3B
100
AcDbXrecord
280
     1
  1
全階平面図
  1
*
  1
*
  1
*
 70
     0
  1
*
  1
*
  0
XRECORD
  5
D43
102
{ACAD_REACTORS
330
B3B
102
}
330
B3B
100
AcDbXrecord
280
     1
  1
総合仮設図
  1
001*,002*,003*,004*,005*,007*,012*,015*,016*,017*,018*,019*,020*,021*,049*,050*,051*,052*,053*,054*,055*,056*,057*,058*,059*,060*,061*,062*,063*,064*,065*,066*,067*,068*,069*,070*,071*,072*,073*,074*,075*
  1
*
  1
*
 70
     0
  1
*
  1
*
  0
XRECORD
  5
D44
102
{ACAD_REACTORS
330
B3B
102
}
330
B3B
100
AcDbXrecord
280
     1
  1
総合図
  1
*z*,*u*,*w*,*y*,*x*,*V*,06
  1
*
  1
*
 70
     0
  1
*
  1
*
  0
XRECORD
  5
D45
102
{ACAD_REACTORS
330
B3B
102
}
330
B3B
100
AcDbXrecord
280
     1
  1
足場計画図
  1
001*,002*,003*,004*,005*,007*,012*,015*,049*,050*,051*,055*,056*,057*,058*,059*,060*,061*,062*,064*,065*,066*,067*,068*,069*,070*,071*,072*,073*,074*,075*
  1
*
  1
*
 70
     0
  1
*
  1
*
  0
XRECORD
  5
D46
102
{ACAD_REACTORS
330
B3B
102
}
330
B3B
100
AcDbXrecord
280
     1
  1
地下埋設
  1
*ち*
  1
*
  1
*
 70
     0
  1
*
  1
*
  0
XRECORD
  5
D47
102
{ACAD_REACTORS
330
B3B
102
}
330
B3B
100
AcDbXrecord
280
     1
  1
中野
  1
中野*
  1
*
  1
*
 70
     0
  1
*
  1
*
  0
XRECORD
  5
D48
102
{ACAD_REACTORS
330
B3B
102
}
330
B3B
100
AcDbXrecord
280
     1
  1
低木植栽平面
  1
*て*
  1
*
  1
*
 70
     0
  1
*
  1
*
  0
XRECORD
  5
D49
102
{ACAD_REACTORS
330
B3B
102
}
330
B3B
100
AcDbXrecord
280
     1
  1
低木平面図
  1
*て*
  1
*
  1
*
 70
     0
  1
*
  1
*
  0
XRECORD
  5
D4A
102
{ACAD_REACTORS
330
B3B
102
}
330
B3B
100
AcDbXrecord
280
     1
  1
鉄骨
  1
*-1
  1
*
  1
*
 70
     0
  1
*
  1
*
  0
XRECORD
  5
D4B
102
{ACAD_REACTORS
330
B3B
102
}
330
B3B
100
AcDbXrecord
280
     1
  1
鉄骨建方計画図
  1
001*,002*,003*,004*,005*,007*,012*,013*,049*,050*,051*,052*,053*,054*,055*,056*,057*,058*,059*,060*,061*,062*,063*,064*,065*,066*,067*,068*,069*,070*,071*,072*,073*,074*,075*
  1
*
  1
*
 70
     0
  1
*
  1
*
  0
XRECORD
  5
D4C
102
{ACAD_REACTORS
330
B3B
102
}
330
B3B
100
AcDbXrecord
280
     1
  1
天井インサート図
  1
001*,002*,004*,010*,022*,023*,024*,025*,026*,027*,028*,029*,037*,042*
  1
*
  1
*
 70
     0
  1
*
  1
*
  0
XRECORD
  5
D4D
102
{ACAD_REACTORS
330
B3B
102
}
330
B3B
100
AcDbXrecord
280
     1
  1
天井総合図
  1
001*,002*,004*,005*,007*,010*,022*,023*,024*,025*,026*,027*,028*,029*,030*,031*,033*,035*,036*,037*,039*,041*,042*,044*,046*,047*
  1
*
  1
*
 70
     0
  1
*
  1
*
  0
XRECORD
  5
D4E
102
{ACAD_REACTORS
330
B3B
102
}
330
B3B
100
AcDbXrecord
280
     1
  1
天井伏図
  1
0,00*,01*,03*,05*,1*,2*,3*,4*,7*,9*
  1
*
  1
*
 70
     0
  1
*
  1
*
  0
XRECORD
  5
D4F
102
{ACAD_REACTORS
330
B3B
102
}
330
B3B
100
AcDbXrecord
280
     1
  1
天伏
  1
*05
  1
*
  1
*
 70
     0
  1
*
  1
*
  0
XRECORD
  5
D50
102
{ACAD_REACTORS
330
B3B
102
}
330
B3B
100
AcDbXrecord
280
     1
  1
電気設備図
  1
001*,002*,004*,005*,007*,010*,030*,031*,044*,045*,046*,047*,048*
  1
*
  1
*
 70
     0
  1
*
  1
*
  0
XRECORD
  5
D51
102
{ACAD_REACTORS
330
B3B
102
}
330
B3B
100
AcDbXrecord
280
     1
  1
土壌改良
  1
*ど*
  1
*
  1
*
 70
     0
  1
*
  1
*
  0
XRECORD
  5
D52
102
{ACAD_REACTORS
330
B3B
102
}
330
B3B
100
AcDbXrecord
280
     1
  1
土木計画平面図
  1
*^ *,*B*,*0*,*排*,*法*,*ﾊ*,*b*
  1
*
  1
*
 70
     0
  1
*
  1
*
  0
XRECORD
  5
D53
102
{ACAD_REACTORS
330
B3B
102
}
330
B3B
100
AcDbXrecord
280
     1
  1
道路
  1
R*
  1
*
  1
*
 70
     0
  1
*
  1
*
  0
XRECORD
  5
D54
102
{ACAD_REACTORS
330
B3B
102
}
330
B3B
100
AcDbXrecord
280
     1
  1
道路関係図
  1
001*,002*,003*,004*,007*,012*,015*,016*,017*,018*,019*,020*,021*,049*,050*,051*,052*,053*,054*,055*,056*,057*,058*,059*,060*,061*,062*,063*,064*,065*,066*,067*,068*,069*,070*,071*,072*,073*,074*,075*
  1
*
  1
*
 70
     0
  1
*
  1
*
  0
XRECORD
  5
D55
102
{ACAD_REACTORS
330
B3B
102
}
330
B3B
100
AcDbXrecord
280
     1
  1
排水
  1
*は*
  1
*
  1
*
 70
     0
  1
*
  1
*
  0
XRECORD
  5
D56
102
{ACAD_REACTORS
330
B3B
102
}
330
B3B
100
AcDbXrecord
280
     1
  1
排水設備平面図
  1
*は*
  1
*
  1
*
 70
     0
  1
*
  1
*
  0
XRECORD
  5
D57
102
{ACAD_REACTORS
330
B3B
102
}
330
B3B
100
AcDbXrecord
280
     1
  1
排水平面
  1
*は*
  1
*
  1
*
 70
     0
  1
*
  1
*
  0
XRECORD
  5
D58
102
{ACAD_REACTORS
330
B3B
102
}
330
B3B
100
AcDbXrecord
280
     1
  1
配管
  1
PIPE*
  1
*
  1
*
 70
     0
  1
*
  1
*
  0
XRECORD
  5
D59
102
{ACAD_REACTORS
330
B3B
102
}
330
B3B
100
AcDbXrecord
280
     1
  1
非表示
  1
*
  1
*
  1
*
 70
     3
  1
*
  1
*
  0
XRECORD
  5
D5A
102
{ACAD_REACTORS
330
B3B
102
}
330
B3B
100
AcDbXrecord
280
     1
  1
非表示ﾚｲﾔｰ
  1
*-z
  1
*
  1
*
 70
     0
  1
*
  1
*
  0
XRECORD
  5
D5B
102
{ACAD_REACTORS
330
B3B
102
}
330
B3B
100
AcDbXrecord
280
     1
  1
表示
  1
*
  1
*
  1
*
 70
     1
  1
*
  1
*
  0
XRECORD
  5
D5C
102
{ACAD_REACTORS
330
B3B
102
}
330
B3B
100
AcDbXrecord
280
     1
  1
表示・非表示
  1
*
  1
*
  1
*
 70
     1
  1
*
  1
*
  0
XRECORD
  5
D5D
102
{ACAD_REACTORS
330
B3B
102
}
330
B3B
100
AcDbXrecord
280
     1
  1
表示2
  1
*
  1
*
  1
*
 70
   257
  1
*
  1
*
  0
XRECORD
  5
D5E
102
{ACAD_REACTORS
330
B3B
102
}
330
B3B
100
AcDbXrecord
280
     1
  1
分割枠
  1
枠*
  1
*
  1
*
 70
     0
  1
*
  1
*
  0
XRECORD
  5
D5F
102
{ACAD_REACTORS
330
B3B
102
}
330
B3B
100
AcDbXrecord
280
     1
  1
平面詳細図
  1
SUNPO-S,SIZE,HOJO,ZATU,HATCH,HWAKU,HMOJI,WARITUKE-T,WARITUKE-Y,WARITUKE-K,TATEGU1,TATEGU,BR-S,MAJIKIRI,KABE2,SIAGE,KABE1,KABE,KOBARI-S,KOBARI-R,HARI-S,HARI-R,HASIRA-S,HASIRA-R,MOJI,SHITUMEI,LABEL,FL-FUGO,FUGO-W,SUNPO,SUNPO2,SUNPO1,KIJUN2,KIJUN1,KIJUN
  1
*
  1
*
 70
     0
  1
*
  1
*
  0
XRECORD
  5
D60
102
{ACAD_REACTORS
330
B3B
102
}
330
B3B
100
AcDbXrecord
280
     1
  1
平面図
  1
*HMOJI,*HOJO2,*HOJO3,*SINSEI,*FUGOT
  1
*
  1
*
 70
     0
  1
*
  1
*
  0
XRECORD
  5
D61
102
{ACAD_REACTORS
330
B3B
102
}
330
B3B
100
AcDbXrecord
280
     1
  1
平面総合図
  1
001*,002*,004*,010*,013*,014*,015*,016*,017*,018*,019*,020*,021*,030*,031*,034*,040*,045*
  1
*
  1
*
 70
     0
  1
*
  1
*
  0
XRECORD
  5
D62
102
{ACAD_REACTORS
330
B3B
102
}
330
B3B
100
AcDbXrecord
280
     1
  1
変更分
  1
六*
  1
*
  1
*
 70
     0
  1
*
  1
*
  0
XRECORD
  5
D63
102
{ACAD_REACTORS
330
B3B
102
}
330
B3B
100
AcDbXrecord
280
     1
  1
舗装平面
  1
*ほ*
  1
*
  1
*
 70
     0
  1
*
  1
*
  0
XRECORD
  5
D64
102
{ACAD_REACTORS
330
B3B
102
}
330
B3B
100
AcDbXrecord
280
     1
  1
舗装平面C1
  1
*α*
  1
*
  1
*
 70
     0
  1
*
  1
*
  0
XRECORD
  5
D65
102
{ACAD_REACTORS
330
B3B
102
}
330
B3B
100
AcDbXrecord
280
     1
  1
舗装平面C2
  1
*β*
  1
*
  1
*
 70
     0
  1
*
  1
*
  0
XRECORD
  5
D66
102
{ACAD_REACTORS
330
B3B
102
}
330
B3B
100
AcDbXrecord
280
     1
  1
舗装平面図
  1
*ほ*
  1
*
  1
*
 70
     0
  1
*
  1
*
  0
XRECORD
  5
D67
102
{ACAD_REACTORS
330
B3B
102
}
330
B3B
100
AcDbXrecord
280
     1
  1
法規チェック－区画
  1
*92
  1
*
  1
*
 70
     0
  1
*
  1
*
  0
XRECORD
  5
D68
102
{ACAD_REACTORS
330
B3B
102
}
330
B3B
100
AcDbXrecord
280
     1
  1
法規チェック－範囲
  1
*0
  1
*
  1
*
 70
     0
  1
*
  1
*
  0
XRECORD
  5
D69
102
{ACAD_REACTORS
330
B3B
102
}
330
B3B
100
AcDbXrecord
280
     1
  1
鳳文字入力
  1
*
  1
*
  1
*
 70
     0
  1
*
  1
*
  0
XRECORD
  5
D6A
102
{ACAD_REACTORS
330
B3B
102
}
330
B3B
100
AcDbXrecord
280
     1
  1
防災
  1
B*
  1
*
  1
*
 70
   768
  1
*
  1
*
  0
XRECORD
  5
D6B
102
{ACAD_REACTORS
330
B3B
102
}
330
B3B
100
AcDbXrecord
280
     1
  1
名称
  1
*名称
  1
*
  1
*
 70
     0
  1
*
  1
*
  0
XRECORD
  5
D6C
102
{ACAD_REACTORS
330
B3B
102
}
330
B3B
100
AcDbXrecord
280
     1
  1
面積
  1
*
  1
*
  1
*
 70
     3
  1
*
  1
*
  0
XRECORD
  5
D6D
102
{ACAD_REACTORS
330
B3B
102
}
330
B3B
100
AcDbXrecord
280
     1
  1
擁壁平面図
  1
*よ*
  1
*
  1
*
 70
     0
  1
*
  1
*
  0
XRECORD
  5
D6E
102
{ACAD_REACTORS
330
B3B
102
}
330
B3B
100
AcDbXrecord
280
     1
  1
用途色塗
  1
*1-*
  1
*
  1
*
 70
     0
  1
*
  1
*
  0
XRECORD
  5
D6F
102
{ACAD_REACTORS
330
B3B
102
}
330
B3B
100
AcDbXrecord
280
     1
  1
立面図
  1
*HOJO2
  1
*
  1
*
 70
     0
  1
*
  1
*
  0
XRECORD
  5
D70
102
{ACAD_REACTORS
330
B3B
102
}
330
B3B
100
AcDbXrecord
280
     1
  1
梁
  1
0,08*,17*,梁*
  1
*
  1
*
 70
     0
  1
*
  1
*
  0
XRECORD
  5
D71
102
{ACAD_REACTORS
330
B3B
102
}
330
B3B
100
AcDbXrecord
280
     1
  1
緑
  1
*
  1
Green
  1
*
 70
     0
  1
*
  1
*
  0
ENDSEC
  0
EOF
